↑↓torrent.by
Поиск
Логин:  Регистрация
Пароль:

Сумерки киллера / Закат убийцы / Crépuscule pour un tueur / Dusk For A Hitman (2023) WEB-DLRip 720p от DoMiNo & селезень | P2 | ViruseProject

download Скачать торрент-файл   magnet Магнитная ссылка Размер: 2.22 GB Добавлен: 2024-05-12 05:00
Пиры будут получены из сети DHT
Последний сидер был замечен сегодня в 01:27
Информация о фильме Название: Сумерки киллера / Закат убийцы Оригинальное название: Crépuscule pour un tueur / Dusk For A Hitman Год выхода: 2023 Жанр: Боевик, криминал, триллер Режиссер: Рэймонд Сен-Жан В ролях: Эрик Брюно, Бенуа Гуэн, Роз-Мари Перро, Сильвен Марсель, Александр Кастонгуэй, Жан Птиклер, Мартин Тремблэ и др. О фильме: В конце 70-х канадскую столицу держит в страхе банда рэкетиров и грабителей. Любое неповиновение для упрямца может окончиться смертью — безжалостный главарь банды Клод Дюбуа скор на расправу. Для этого он держит подле себя хладнокровного Дональда Лавуа, выполняющего любой приказ без лишних вопросов и сомнений. С одинаковым спокойствием Лавуа готов устранять хоть случайных свидетелей, хоть товарищей по банде, чем-то не угодивших Клоду. Жёсткая криминальная драма из Канады следует традициям европейских классических образцов этого жанра и заставляет вспомнить фильмы с молодым Аленом Делоном или Жан-Полем Бельмондо. Схожесть подчёркивает ретро-стиль фильма и суровый Эрик Брюно в главной роли. Страна: Канада Продолжительность: 01:46:48 Перевод: Профессиональный (двухголосый, закадровый) | ViruseProject | ВНИМАНИЕ! НЕНОРМАТИВНАЯ ЛЕКСИКА! Субтитры: Русские (Forced, Full), Английские (Full, SDH) Файл Формат: Matroska Качество: WEB-DLRip 720p Видео: 1280x534 at 23.976 fps, x264@L4.1, ~2584 kbps Аудио: AC3, 2 ch, ~384 kbps - | Русский | Формат субтитров: softsub (SRT) ***Рип от: -=DoMiNo=-
[+] M/Ix264 : frame I:1165 Avg QP:16.58 size: 78322 x264 : frame P:30506 Avg QP:18.45 size: 26697 x264 : frame B:121983 Avg QP:19.93 size: 9544 General Unique ID : 167413171404395565145973854545247051327 (0x7DF29A9F0A34F0A35367F5D30A1D9E3F) Complete name : R:Dusk.For.A.Hitman.2023.DVO.WEB-DLRip.720p.x264.seleZen.mkv Format : Matroska Format version : Version 4 File size : 2.22 GiB Duration : 1 h 46 min Overall bit rate : 2 970 kb/s Frame rate : 23.976 FPS Movie name : Dusk.For.A.Hitman.2023.DVO.WEB-DLRip.720p.x264.seleZen Encoded date : 2024-05-11 17:44:15 UTC Writing application : mkvmerge v84.0 ('Sleeper') 64-bit Writing library : libebml v1.4.5 + libmatroska v1.7.1 Cover : Yes Attachments : cover.jpg / small_cover.jpg Video ID : 1 Format : AVC Format/Info : Advanced Video Codec Format profile : High@L4.1 Format settings : CABAC / 5 Ref Frames Format settings, CABAC : Yes Format settings, Reference : 5 frames Codec ID : V_MPEG4/ISO/AVC Duration : 1 h 46 min Bit rate : 2 584 kb/s Width : 1 280 pixels Height : 534 pixels Display aspect ratio : 2.40:1 Frame rate mode : Constant Frame rate : 23.976 (24000/1001) FPS Color space : YUV Chroma subsampling : 4:2:0 Bit depth : 8 bits Scan type : Progressive Bits/(Pixel*Frame) : 0.158 Stream size : 1.93 GiB (87%) Title : -=DoMiNo=- Writing library : x264 core 164 r3190 -DoMiNo Encoding settings : cabac=1 / ref=5 / deblock=1:-1:-1 / analyse=0x3:0x133 / me=umh / subme=10 / psy=1 / psy_rd=1.00:0.00 / mixed_ref=1 / me_range=32 / chroma_me=1 / trellis=2 / 8x8dct=1 / cqm=0 / deadzone=21,11 / fast_pskip=0 / chroma_qp_offset=-2 / threads=17 / lookahead_threads=4 / sliced_threads=0 / nr=0 / decimate=1 / interlaced=0 / bluray_compat=0 / constrained_intra=0 / bframes=12 / b_pyramid=2 / b_adapt=2 / b_bias=0 / direct=3 / weightb=1 / open_gop=0 / weightp=2 / keyint=240 / keyint_min=23 / scenecut=40 / intra_refresh=0 / rc_lookahead=60 / rc=crf / mbtree=0 / crf=19.3 / qcomp=0.60 / qpmin=0 / qpmax=69 / qpstep=4 / vbv_maxrate=50000 / vbv_bufsize=62500 / crf_max=0.0 / nal_hrd=none / filler=0 / ip_ratio=1.35 / pb_ratio=1.25 / aq=3:0.90 Language : English Default : Yes Forced : No Color range : Limited Color primaries : BT.709 Transfer characteristics : BT.709 Matrix coefficients : BT.709 Audio ID : 2 Format : AC-3 Format/Info : Audio Coding 3 Commercial name : Dolby Digital Codec ID : A_AC3 Duration : 1 h 46 min Bit rate mode : Constant Bit rate : 384 kb/s Channel(s) : 2 channels Channel layout : L R Sampling rate : 48.0 kHz Frame rate : 31.250 FPS (1536 SPF) Compression mode : Lossy Stream size : 293 MiB (13%) Title : DVO -ViruseProject Language : Russian Service kind : Complete Main Default : Yes Forced : No Dialog Normalization : -31 dB dialnorm_Average : -31 dB dialnorm_Minimum : -31 dB dialnorm_Maximum : -31 dB Text #1 ID : 3 Format : UTF-8 Codec ID : S_TEXT/UTF8 Codec ID/Info : UTF-8 Plain Text Duration : 1 h 45 min Bit rate : 71 b/s Frame rate : 0.196 FPS Count of elements : 1238 Stream size : 55.3 KiB (0%) Title : Full -ViruseProject Language : Russian Default : No Forced : No Text #2 ID : 4 Format : UTF-8 Codec ID : S_TEXT/UTF8 Codec ID/Info : UTF-8 Plain Text Duration : 1 h 42 min Bit rate : 36 b/s Frame rate : 0.161 FPS Count of elements : 991 Stream size : 27.5 KiB (0%) Language : English Default : No Forced : No
Релиз: Присоединяйся к: Кликай на баннеры.

Всего файлов в раздаче: 1 
Dusk.For.A.Hitman.2023.DVO.WEB-DLRip.720p.x264.seleZen.mkv2.22 GB

Похожие раздачи по запросу - Сумерки
2024-05-12 magnet Закат убийцы / Сумерки киллера / Crepuscule pour un tueur / Dusk For A Hitman (2023) WEB-DLRip от New-Team | P2 | ViruseProject 1.46 GB ↑ 0 ↓ 0
2024-05-12 magnet Закат убийцы / Сумерки киллера / Crepuscule pour un tueur / Dusk For A Hitman (2023) WEB-DL 1080p | ViruseProject 6.99 GB ↑ 0 ↓ 0

Кто качает (только для создателя раздачи и модераторов): Локальные пиры отсутствуют

Комментарии


Зарегистрируйтесь чтобы добавить комментарий
Торрент клиент
byTorrent - программа для загрузки торрент-файлов.

Скачать byTorrent.exe (1,5 МБ)

Скачать byTorrent.zip (0,6 МБ)

Поддержи torrent.by
российских рублей
(300 российских рублей это 4$)

Обратная связь rss

End game ©