↑↓torrent.by
Поиск
Логин:  Регистрация
Пароль:

Эбигейл / Abigail (2024) WEB-DLRip 720p от DoMiNo & селезень | P, P2 | Jaskier, ViruseProject

download Скачать торрент-файл   magnet Магнитная ссылка Размер: 3.22 GB Добавлен: 2024-05-12 05:00
Пиры будут получены из сети DHT
Последний сидер был замечен 2024-05-19 00:31
Информация о фильме Название: Эбигейл Оригинальное название: Abigail Год выхода: 2024 Жанр: Ужасы, триллер Режиссер: Мэттью Беттинелли, Тайлер Джиллетт В ролях: Мелисса Баррера, Дэн Стивенс, Алиша Вейр, Уильям Кэтлетт, Кэтрин Ньютон, Кевин Дюран, Ангус Клауд, Джанкарло Эспозито, Мэттью Гуд и др. О фильме: Банда преступников похищает 12-летнюю балерину, дочь криминального авторитета. Спрятавшись в уединённом особняке, они ещё не догадываются, что влиятельный отец девочки - далеко не главная их проблема. Страна: США, Ирландия, Канада / Project X Entertainment, Québec Production Services Tax Credit, Radio Silence Productions, Wild Atlantic Pictures Продолжительность: 01:49:31 Перевод 1: Профессиональный (многоголосый закадровый) | Jaskier | 18+ Перевод 2: Профессиональный (двухголосый, закадровый) | ViruseProject Субтитры: Русские (Full (stirlooo 18+)), английские Файл Формат: Matroska Качество: WEB-DLRip 720p Видео: 1280x534 at 23.976 fps, x264@L4.1, ~2982 kbps Аудио 1: AC3, 6 ch, ~384 kbps - | Русский | | Jaskier Аудио 2: AC3, 2 ch, ~384 kbps - | Русский | | ViruseProject Аудио 3: AC3, 6 ch, ~448 kbps - | Английский | | Original Формат субтитров: softsub (SRT) ***Рип от: -=DoMiNo=-
[+] M/Ix264 : frame I:1441 Avg QP:13.86 size: 83359 x264 : frame P:31925 Avg QP:15.20 size: 32756 x264 : frame B:124432 Avg QP:17.88 size: 10348 General Unique ID : 197103768946539938807123785737321349150 (0x9448CE197F8D574620B88E4892C8801E) Complete name : S:Abigail.2024.WEB-DLRip.720p.x264.seleZen.mkv Format : Matroska Format version : Version 4 File size : 3.22 GiB Duration : 1 h 49 min Overall bit rate : 4 199 kb/s Frame rate : 23.976 FPS Movie name : Abigail.2024.WEB-DLRip.720p.x264.seleZen Encoded date : 2024-05-11 18:19:39 UTC Writing application : mkvmerge v84.0 ('Sleeper') 64-bit Writing library : libebml v1.4.5 + libmatroska v1.7.1 Cover : Yes Attachments : cover.jpg / small_cover.jpg Video ID : 1 Format : AVC Format/Info : Advanced Video Codec Format profile : High@L4.1 Format settings : CABAC / 5 Ref Frames Format settings, CABAC : Yes Format settings, Reference : 5 frames Codec ID : V_MPEG4/ISO/AVC Duration : 1 h 49 min Bit rate : 2 982 kb/s Width : 1 280 pixels Height : 534 pixels Display aspect ratio : 2.40:1 Frame rate mode : Constant Frame rate : 23.976 (24000/1001) FPS Color space : YUV Chroma subsampling : 4:2:0 Bit depth : 8 bits Scan type : Progressive Bits/(Pixel*Frame) : 0.182 Stream size : 2.28 GiB (71%) Title : -=DoMiNo=- Writing library : x264 core 164 r3190 -DoMiNo Encoding settings : cabac=1 / ref=5 / deblock=1:-2:-1 / analyse=0x3:0x133 / me=umh / subme=10 / psy=1 / psy_rd=1.00:0.15 / mixed_ref=1 / me_range=32 / chroma_me=1 / trellis=2 / 8x8dct=1 / cqm=0 / deadzone=21,11 / fast_pskip=0 / chroma_qp_offset=-3 / threads=17 / lookahead_threads=4 / sliced_threads=0 / nr=0 / decimate=1 / interlaced=0 / bluray_compat=0 / constrained_intra=0 / bframes=12 / b_pyramid=2 / b_adapt=2 / b_bias=0 / direct=3 / weightb=1 / open_gop=0 / weightp=2 / keyint=240 / keyint_min=23 / scenecut=40 / intra_refresh=0 / rc_lookahead=60 / rc=crf / mbtree=0 / crf=18.0 / qcomp=0.60 / qpmin=0 / qpmax=69 / qpstep=4 / vbv_maxrate=50000 / vbv_bufsize=62500 / crf_max=0.0 / nal_hrd=none / filler=0 / ip_ratio=1.35 / pb_ratio=1.25 / aq=3:0.90 Language : English Default : Yes Forced : No Color range : Limited Color primaries : BT.709 Transfer characteristics : BT.709 Matrix coefficients : BT.709 Audio #1 ID : 2 Format : AC-3 Format/Info : Audio Coding 3 Commercial name : Dolby Digital Codec ID : A_AC3 Duration : 1 h 49 min Bit rate mode : Constant Bit rate : 384 kb/s Channel(s) : 6 channels Channel layout : L R C LFE Ls Rs Sampling rate : 48.0 kHz Frame rate : 31.250 FPS (1536 SPF) Compression mode : Lossy Stream size : 301 MiB (9%) Title : MVO -Jaskier Language : Russian Service kind : Complete Main Default : Yes Forced : No Dialog Normalization : -31 dB cmixlev : -4.5 dB surmixlev : -6 dB dialnorm_Average : -31 dB dialnorm_Minimum : -31 dB dialnorm_Maximum : -31 dB Audio #2 ID : 3 Format : AC-3 Format/Info : Audio Coding 3 Commercial name : Dolby Digital Codec ID : A_AC3 Duration : 1 h 49 min Bit rate mode : Constant Bit rate : 384 kb/s Channel(s) : 2 channels Channel layout : L R Sampling rate : 48.0 kHz Frame rate : 31.250 FPS (1536 SPF) Compression mode : Lossy Stream size : 301 MiB (9%) Title : DVO -ViruseProject Language : Russian Service kind : Complete Main Default : No Forced : No Dialog Normalization : -31 dB dialnorm_Average : -31 dB dialnorm_Minimum : -31 dB dialnorm_Maximum : -31 dB Audio #3 ID : 4 Format : AC-3 Format/Info : Audio Coding 3 Commercial name : Dolby Digital Codec ID : A_AC3 Duration : 1 h 49 min Bit rate mode : Constant Bit rate : 448 kb/s Channel(s) : 6 channels Channel layout : L R C LFE Ls Rs Sampling rate : 48.0 kHz Frame rate : 31.250 FPS (1536 SPF) Compression mode : Lossy Stream size : 351 MiB (11%) Language : English Service kind : Complete Main Default : No Forced : No Dialog Normalization : -31 dB cmixlev : -4.5 dB surmixlev : -6 dB dialnorm_Average : -31 dB dialnorm_Minimum : -31 dB dialnorm_Maximum : -31 dB Text #1 ID : 5 Format : UTF-8 Codec ID : S_TEXT/UTF8 Codec ID/Info : UTF-8 Plain Text Duration : 1 h 45 min Bit rate : 76 b/s Frame rate : 0.201 FPS Count of elements : 1271 Stream size : 58.8 KiB (0%) Title : Full (stirlooo 18+) Language : Russian Default : No Forced : No Text #2 ID : 6 Format : UTF-8 Codec ID : S_TEXT/UTF8 Codec ID/Info : UTF-8 Plain Text Duration : 1 h 44 min Bit rate : 50 b/s Frame rate : 0.235 FPS Count of elements : 1478 Stream size : 38.8 KiB (0%) Language : English Default : No Forced : No Text #3 ID : 7 Format : UTF-8 Codec ID : S_TEXT/UTF8 Codec ID/Info : UTF-8 Plain Text Duration : 1 h 49 min Bit rate : 59 b/s Frame rate : 0.284 FPS Count of elements : 1864 Stream size : 47.7 KiB (0%) Title : SDH Language : English Default : No Forced : No Menu 00:00:00.000 : en:Chapter 01 00:09:30.779 : en:Chapter 02 00:15:10.285 : en:Chapter 03 00:19:58.156 : en:Chapter 04 00:25:56.514 : en:Chapter 05 00:32:13.892 : en:Chapter 06 00:38:36.983 : en:Chapter 07 00:46:24.951 : en:Chapter 08 00:53:19.574 : en:Chapter 09 00:59:57.430 : en:Chapter 10 01:04:18.900 : en:Chapter 11 01:14:32.597 : en:Chapter 12 01:23:23.211 : en:Chapter 13 01:31:34.494 : en:Chapter 14 01:37:43.405 : en:Chapter 15 01:44:59.132 : en:Chapter 16
Релиз: Присоединяйся к: Кликай на баннеры.

Всего файлов в раздаче: 1 
Abigail.2024.WEB-DLRip.720p.x264.seleZen.mkv3.22 GB

Похожие раздачи по запросу - Эбигейл
2024-05-14 magnet Эбигейл / Abigail (2024) UHD WEB-DL-HEVC 2160p | 4K | HDR | Dolby Vision Profile 8 | P, P2 20.21 GB ↑ 1 ↓ 5
2024-05-13 magnet Эбигейл / Abigail (2024) WEB-DLRip-AVC от DoMiNo & селезень | P, P2 | TVShows, Jaskier, ViruseProject 1.92 GB ↑ 0 ↓ 0
2024-05-12 magnet Эбигейл / Abigail (2024) WEB-DLRip-AVC от New-Team | P 2.23 GB ↑ 0 ↓ 1
2024-05-12 magnet Эбигейл / Abigail (2024) UHD WEB-DL-HEVC 2160p | 4K | HDR | Dolby Vision Profile 8 | P, P2 19.91 GB ↑ 0 ↓ 1
2024-05-12 magnet Эбигейл / Abigail (2024) UHD WEB-DL-HEVC 2160p | 4K | SDR | P, P2 | Jaskier, ViruseProject 12.51 GB ↑ 0 ↓ 2
2024-05-12 magnet Эбигейл / Abigail (2024) WEB-DLRip от ExKinoRay | P2 744.62 MB ↑ 1 ↓ 0
2024-05-12 magnet Эбигейл / Abigail (2024) WEB-DL 1080p от New-Team | P, P2 6.39 GB ↑ 0 ↓ 2

Комментарии


Зарегистрируйтесь чтобы добавить комментарий
Торрент клиент
byTorrent - программа для загрузки торрент-файлов.

Скачать byTorrent.exe (1,5 МБ)

Скачать byTorrent.zip (0,6 МБ)

Поддержи torrent.by
российских рублей
(300 российских рублей это 4$)

Обратная связь rss

End game ©