↑↓torrent.by
Поиск
Логин:  Регистрация
Пароль:

Эбигейл / Abigail (2024) WEB-DL 1080p от New-Team | P, P2

download Скачать торрент-файл   magnet Магнитная ссылка Размер: 6.09 GB Добавлен: 2024-05-12 05:00
Пиры будут получены из сети DHT
Последний сидер был замечен 2024-05-14 20:23
Эбигейл / Abigail Год выпуска: 2024 Выпущено: США, Ирландия, Канада / Project X Entertainment, Québec Production Services Tax Credit, Radio Silence Productions, Wild Atlantic Pictures Жанр: ужасы, триллер Режиссер: Мэттью Беттинелли / Matthew Bettinelli, Тайлер Джиллетт / Tyler Gillett В ролях: Мелисса Баррера, Дэн Стивенс, Алиша Вейр, Уильям Кэтлетт, Кэтрин Ньютон, Кевин Дюран, Ангус Клауд, Джанкарло Эспозито, Мэттью Гуд О фильме: Банда преступников похищает 12-летнюю балерину, дочь криминального авторитета. Спрятавшись в уединённом особняке, они ещё не догадываются, что влиятельный отец девочки — далеко не главная их проблема. Продолжительность: 01:49:31 Перевод: #1: Профессиональный (многоголосый закадровый) | Jaskier | 18+ #2: Профессиональный (двухголосый, закадровый) | ViruseProject Субтитры: Русские (full (stirlooo 18+)), английские (full) Раздача от: Автор релиза: JNS82. Формат: MKV Качество: WEB-DL 1080p Видео: MPEG-4 AVC, 1920x800, 6616 Кбит/с, (2,40:1), 23,976 fps Аудио #1: 48 kHz, AC3 Dolby Digital, 3/2 (L,C,R,l,r) + LFE ch, ~ 384 kbps | RUS | Jaskier Аудио #2: 48 kHz, AC3 Dolby Digital, 2/0 (L,R) ch, ~ 192 kbps | RUS | ViruseProject Аудио #3: 48 kHz, E-AC3 JOC Dolby Digital, 3/2 (L,C,R,l,r) + LFE ch, ~ 768 kbps | ENG |
[+] MediaInfoОбщее Уникальный идентификатор : 327763045988162610327958181353216908149 (0xF694DDD27FDE872AE3E285AF00E19B75) Полное имя : D:TorrentsAbigail.2024.WEB-DL.1080p_от New-Team.mkv Формат : Matroska Версия формата : Version 4 Размер файла : 6,09 Гбайт Продолжительность : 1 ч. 49 м. Общий поток : 7 963 Кбит/сек Название фильма : Abigail.2024.WEB-DL.1080p_от New-Team Дата кодирования : UTC 2024-05-11 18:05:13 Программа кодирования : mkvmerge v79.0 ('Funeral Pyres') 64-bit Библиотека кодирования : libebml v1.4.4 + libmatroska v1.7.1 Видео Идентификатор : 1 Формат : AVC Формат/Информация : Advanced Video Codec Профиль формата : High@L4 Настройки формата : CABAC / 5 Ref Frames Параметр CABAC формата : Да Параметр RefFrames формата : 5 кадров Идентификатор кодека : V_MPEG4/ISO/AVC Продолжительность : 1 ч. 49 м. Битрейт : 6 616 Кбит/сек Ширина : 1 920 пикселей Высота : 800 пикселей Соотношение сторон : 2,40:1 Режим частоты кадров : Постоянный Частота кадров : 23,976 (24000/1001) кадра/сек Цветовое пространство : YUV Субдискретизация насыщенности : 4:2:0 Битовая глубина : 8 бит Тип развёртки : Прогрессивная Бит/(Пиксели*Кадры) : 0.180 Размер потока : 5,06 Гбайт (83%) Язык : English Default : Да Forced : Нет Цветовой диапазон : Limited Основные цвета : BT.709 Характеристики трансфера : BT.709 Коэффициенты матрицы : BT.709 Аудио #1 Идентификатор : 2 Формат : AC-3 Формат/Информация : Audio Coding 3 Коммерческое название : Dolby Digital Идентификатор кодека : A_AC3 Продолжительность : 1 ч. 49 м. Вид битрейта : Постоянный Битрейт : 384 Кбит/сек Каналы : 6 каналов Channel layout : L R C LFE Ls Rs Частота : 48,0 КГц Частота кадров : 31,250 кадров/сек (1536 SPF) Метод сжатия : С потерями Размер потока : 301 Мбайт (5%) Заголовок : MVO - Jaskier | 18+ Язык : Russian Service kind : Complete Main Default : Да Forced : Нет Аудио #2 Идентификатор : 3 Формат : AC-3 Формат/Информация : Audio Coding 3 Коммерческое название : Dolby Digital Идентификатор кодека : A_AC3 Продолжительность : 1 ч. 49 м. Вид битрейта : Постоянный Битрейт : 192 Кбит/сек Каналы : 2 канала Channel layout : L R Частота : 48,0 КГц Частота кадров : 31,250 кадров/сек (1536 SPF) Метод сжатия : С потерями Размер потока : 150 Мбайт (2%) Заголовок : DVO - ViruseProject Язык : Russian Service kind : Complete Main Default : Нет Forced : Нет Аудио #3 Идентификатор : 4 Формат : E-AC-3 JOC Формат/Информация : Enhanced AC-3 with Joint Object Coding Коммерческое название : Dolby Digital Plus with Dolby Atmos Идентификатор кодека : A_EAC3 Продолжительность : 1 ч. 49 м. Вид битрейта : Постоянный Битрейт : 768 Кбит/сек Каналы : 6 каналов Channel layout : L R C LFE Ls Rs Частота : 48,0 КГц Частота кадров : 31,250 кадров/сек (1536 SPF) Метод сжатия : С потерями Размер потока : 602 Мбайт (10%) Заголовок : Original Язык : English Service kind : Complete Main Default : Нет Forced : Нет Complexity index : 16 Number of dynamic objects : 15 Bed channel count : 1 канал Bed channel configuration : LFE Текст #1 Идентификатор : 5 Формат : UTF-8 Идентификатор кодека : S_TEXT/UTF8 Идентификатор кодека/Информация : UTF-8 Plain Text Продолжительность : 1 ч. 45 м. Битрейт : 76 бит/сек Count of elements : 1271 Размер потока : 58,8 Кбайт (0%) Заголовок : ] Язык : Russian Default : Нет Forced : Нет Текст #2 Идентификатор : 6 Формат : UTF-8 Идентификатор кодека : S_TEXT/UTF8 Идентификатор кодека/Информация : UTF-8 Plain Text Продолжительность : 1 ч. 44 м. Битрейт : 50 бит/сек Count of elements : 1478 Размер потока : 38,8 Кбайт (0%) Заголовок : Язык : English Default : Нет Forced : Нет Текст #3 Идентификатор : 7 Формат : UTF-8 Идентификатор кодека : S_TEXT/UTF8 Идентификатор кодека/Информация : UTF-8 Plain Text Продолжительность : 1 ч. 49 м. Битрейт : 59 бит/сек Count of elements : 1864 Размер потока : 47,7 Кбайт (0%) Заголовок : Язык : English Default : Нет Forced : Нет Меню 00:00:00.000 : en:Chapter 01 00:09:30.779 : en:Chapter 02 00:15:10.285 : en:Chapter 03 00:19:58.156 : en:Chapter 04 00:25:56.514 : en:Chapter 05 00:32:13.892 : en:Chapter 06 00:38:36.983 : en:Chapter 07 00:46:24.951 : en:Chapter 08 00:53:19.574 : en:Chapter 09 00:59:57.430 : en:Chapter 10 01:04:18.900 : en:Chapter 11 01:14:32.597 : en:Chapter 12 01:23:23.211 : en:Chapter 13 01:31:34.494 : en:Chapter 14 01:37:43.405 : en:Chapter 15 01:44:59.132 : en:Chapter 16

Всего файлов в раздаче: 1 
Abigail.2024.WEB-DL.1080p_от New-Team.mkv6.09 GB

Похожие раздачи по запросу - Эбигейл
2024-05-14 magnet Эбигейл / Abigail (2024) UHD WEB-DL-HEVC 2160p | 4K | HDR | Dolby Vision Profile 8 | P, P2 20.21 GB ↑ 1 ↓ 4
2024-05-13 magnet Эбигейл / Abigail (2024) WEB-DLRip-AVC от DoMiNo & селезень | P, P2 | TVShows, Jaskier, ViruseProject 1.92 GB ↑ 0 ↓ 1
2024-05-12 magnet Эбигейл / Abigail (2024) WEB-DLRip-AVC от New-Team | P 2.23 GB ↑ 0 ↓ 0
2024-05-12 magnet Эбигейл / Abigail (2024) UHD WEB-DL-HEVC 2160p | 4K | HDR | Dolby Vision Profile 8 | P, P2 19.91 GB ↑ 0 ↓ 1
2024-05-12 magnet Эбигейл / Abigail (2024) UHD WEB-DL-HEVC 2160p | 4K | SDR | P, P2 | Jaskier, ViruseProject 12.51 GB ↑ 0 ↓ 3
2024-05-12 magnet Эбигейл / Abigail (2024) WEB-DLRip от ExKinoRay | P2 744.62 MB ↑ 0 ↓ 0
2024-05-12 magnet Эбигейл / Abigail (2024) WEB-DL 1080p от New-Team | P, P2 6.39 GB ↑ 0 ↓ 1

Кто качает (только для создателя раздачи и модераторов): Локальные пиры отсутствуют

Комментарии


Зарегистрируйтесь чтобы добавить комментарий
Торрент клиент
byTorrent - программа для загрузки торрент-файлов.

Скачать byTorrent.exe (1,5 МБ)

Скачать byTorrent.zip (0,6 МБ)

Поддержи torrent.by
российских рублей
(300 российских рублей это 4$)

Обратная связь rss

End game ©