↑↓torrent.by
Поиск
Логин:  Регистрация
Пароль:

Эбигейл / Abigail (2024) WEB-DLRip от New-Team | P | Jaskier

download Скачать торрент-файл   magnet Магнитная ссылка Размер: 1.46 GB Добавлен: 2024-05-12 11:00
Пиры будут получены из сети DHT
Последний сидер был замечен сегодня в 01:26
Эбигейл / Abigail Год выпуска: 2024 Выпущено: США, Ирландия, Канада / Project X Entertainment, Québec Production Services Tax Credit, Radio Silence Productions, Wild Atlantic Pictures Жанр: ужасы, триллер Режиссер: Мэттью Беттинелли / Matthew Bettinelli, Тайлер Джиллетт / Tyler Gillett В ролях: Мелисса Баррера, Дэн Стивенс, Алиша Вейр, Уильям Кэтлетт, Кэтрин Ньютон, Кевин Дюран, Ангус Клауд, Джанкарло Эспозито, Мэттью Гуд О фильме: Банда преступников похищает 12-летнюю балерину, дочь криминального авторитета. Спрятавшись в уединённом особняке, они ещё не догадываются, что влиятельный отец девочки — далеко не главная их проблема. Продолжительность: 01:49:31 Перевод: Профессиональный (многоголосый закадровый) | Jaskier | 18+ Субтитры: Русские (full (stirlooo 18+)), английские (full), Раздача от: Автор релиза: JNS82. Формат: AVI Качество: WEB-DLRip Видео: 720x304 (2.35:1), 23.976 fps, XviD MPEG-4 ~ 1520 kbps avg, 0.290 bit/pixel, build 74 Аудио: 48 kHz, AC3 Dolby Digital, 3/2 (L,C,R,l,r) + LFE ch, ~ 384 kbps | RUS
[+] MediaInfoОбщее Полное имя : D:TorrentsAbigail.2024.WEB-DLRip_от New-Team_by_JNS82Abigail.2024.WEB-DLRip_от New-Team_by_JNS82.avi Формат : AVI Формат/Информация : Audio Video Interleave Размер файла : 1,46 Гбайт Продолжительность : 1 ч. 49 м. Общий поток : 1 913 Кбит/сек Программа кодирования : VirtualDubMod 1.5.10.2 (build 2540/release) Библиотека кодирования : VirtualDubMod build 2540/release Видео Идентификатор : 0 Формат : MPEG-4 Visual Профиль формата : Advanced Simple@L5 Настройки формата : BVOP1 / Custom Matrix Параметр BVOP формата : 1 Параметр QPel формата : Нет Параметр GMC формата : Без точки перехода Параметр матрицы формата : Выборочная Идентификатор кодека : XVID Идентификатор кодека/Подсказка : XviD Продолжительность : 1 ч. 49 м. Битрейт : 1 520 Кбит/сек Ширина : 720 пикселей Высота : 304 пикселя Соотношение сторон : 2,35:1 Частота кадров : 23,976 (24000/1001) кадра/сек Цветовое пространство : YUV Субдискретизация насыщенности : 4:2:0 Битовая глубина : 8 бит Тип развёртки : Прогрессивная Метод сжатия : С потерями Бит/(Пиксели*Кадры) : 0.290 Размер потока : 1,16 Гбайт (79%) Библиотека кодирования : XviD 74 Аудио Идентификатор : 1 Формат : AC-3 Формат/Информация : Audio Coding 3 Коммерческое название : Dolby Digital Идентификатор кодека : 2000 Продолжительность : 1 ч. 49 м. Вид битрейта : Постоянный Битрейт : 384 Кбит/сек Каналы : 6 каналов Channel layout : L R C LFE Ls Rs Частота : 48,0 КГц Частота кадров : 31,250 кадров/сек (1536 SPF) Метод сжатия : С потерями Размер потока : 301 Мбайт (20%) Выравнивание : Разделение по промежуткам Продолжительность промежутка : 42 мс. (1,00 видеокадр) Время предзагрузки промежутка : 500 мс. Service kind : Complete Main

Всего файлов в раздаче: 3 
Abigail.2024.WEB-DLRip_от New-Team_by_JNS82.avi1.46 GB
Abigail.2024.WEB-DLRip_от New-Team_by_JNS82[eng].srt96.90 kB
Abigail.2024.WEB-DLRip_от New-Team_by_JNS82_[rus].srt108.62 kB

Похожие раздачи по запросу - Эбигейл
2024-05-14 magnet Эбигейл / Abigail (2024) UHD WEB-DL-HEVC 2160p | 4K | HDR | Dolby Vision Profile 8 | P, P2 20.21 GB ↑ 1 ↓ 4
2024-05-13 magnet Эбигейл / Abigail (2024) WEB-DLRip-AVC от DoMiNo & селезень | P, P2 | TVShows, Jaskier, ViruseProject 1.92 GB ↑ 0 ↓ 0
2024-05-12 magnet Эбигейл / Abigail (2024) WEB-DLRip-AVC от New-Team | P 2.23 GB ↑ 0 ↓ 2
2024-05-12 magnet Эбигейл / Abigail (2024) UHD WEB-DL-HEVC 2160p | 4K | HDR | Dolby Vision Profile 8 | P, P2 19.91 GB ↑ 0 ↓ 1
2024-05-12 magnet Эбигейл / Abigail (2024) UHD WEB-DL-HEVC 2160p | 4K | SDR | P, P2 | Jaskier, ViruseProject 12.51 GB ↑ 0 ↓ 1
2024-05-12 magnet Эбигейл / Abigail (2024) WEB-DLRip от ExKinoRay | P2 744.62 MB ↑ 1 ↓ 0
2024-05-12 magnet Эбигейл / Abigail (2024) WEB-DL 1080p от New-Team | P, P2 6.39 GB ↑ 0 ↓ 4

Кто качает (только для создателя раздачи и модераторов): Локальные пиры отсутствуют

Комментарии


Зарегистрируйтесь чтобы добавить комментарий
Торрент клиент
byTorrent - программа для загрузки торрент-файлов.

Скачать byTorrent.exe (1,5 МБ)

Скачать byTorrent.zip (0,6 МБ)

Поддержи torrent.by
российских рублей
(300 российских рублей это 4$)

Обратная связь rss

End game ©