↑↓torrent.by
Поиск
Логин:  Регистрация
Пароль:

В Земле / In the Earth (2021) BDRip-AVC от ExKinoRay | Кинопоиск HD

download Скачать торрент-файл   magnet Магнитная ссылка Размер: 2.44 GB Добавлен: 2024-05-12 17:00
Пиры будут получены из сети DHT
Последний сидер был замечен 2024-06-04 20:16
В Земле / In the Earth Информация о фильме: Название: В Земле Оригинальное название: In the Earth Год выхода: 2021 Жанр: Ужасы, фэнтези Режиссер: Бен Уитли В ролях: Джоэль Фрай, Рис Шерсмит, Хейли Сквайрс, Эллора Торчия, Марк Монеро, Джон Холлинворт Описание: Человечество поразил неизвестный вирус. Герои отправляются в лес и буквально попадают в сердце тьмы, где начинают происходить фантасмагорические и ужасающие события. Страна: Великобритания Студия: Rook Films, Neon Продолжительность: 01:46:55 Перевод: Дублированный - Кинопоиск HD (SDI Media) Информация о файле: Кодек: AVC Формат: MKV Качество: BDRip-AVC | In.the.Earth.2021.BDREMUX.1080p.seleZen Видео: MPEG-4 AVC, 1024x428, 23.976 fps, 2350 kb/s Аудио RU: AC3, 6 ch, 48 kHz, 448 kbps Аудио EN: AC3, 6 ch, 48 kHz, 448 kbps Субтитры: Русские (Full), английские
[+] Скриншоты
[+] MediaInfox264 info: frame I:1124 Avg QP:13.34 size: 77692 x264 info: frame P:39308 Avg QP:16.60 size: 24502 x264 info: frame B:114416 Avg QP:18.56 size: 7342 x264 info: consecutive B-frames: 5.2% 5.1% 12.0% 19.0% 17.3% 24.9% 6.5% 2.7% 2.5% 2.4% 2.5% General Unique ID : 94830869968070796657901601725036937566 (0x4757C2DED085514BD3D6760D4CD8C15E) Complete name : D:uTorrentРипы wolf1245In.the.Earth.2021.DUB.KHD.BDRip-AVC..mkv Format : Matroska Format version : Version 4 File size : 2.44 GiB Duration : 1 h 47 min Overall bit rate : 3 240 kb/s Movie name : In.the.Earth.2021.DUB.KHD.BDRip-AVC. Encoded date : UTC 2021-11-19 16:54:26 Writing application : mkvmerge v63.0.0 ('Everything') 64-bit Writing library : libebml v1.4.2 + libmatroska v1.6.4 Video ID : 1 Format : AVC Format/Info : Advanced Video Codec Format profile : High@L4.1 Format settings : CABAC / 12 Ref Frames Format settings, CABAC : Yes Format settings, Reference frames : 12 frames Codec ID : V_MPEG4/ISO/AVC Duration : 1 h 47 min Bit rate : 2 350 kb/s Width : 1 024 pixels Height : 428 pixels Display aspect ratio : 2.40:1 Frame rate mode : Constant Frame rate : 23.976 (24000/1001) FPS Color space : YUV Chroma subsampling : 4:2:0 Bit depth : 8 bits Scan type : Progressive Bits/(Pixel*Frame) : 0.224 Stream size : 1.76 GiB (72%) Title : -==- Writing library : x264 core 163 r3060 5db6aa6 Encoding settings : cabac=1 / ref=12 / deblock=1:-3:-3 / analyse=0x3:0x133 / me=umh / subme=11 / psy=1 / psy_rd=1.00:0.02 / mixed_ref=1 / me_range=48 / chroma_me=1 / trellis=2 / 8x8dct=1 / cqm=0 / deadzone=21,11 / fast_pskip=1 / chroma_qp_offset=-3 / threads=10 / lookahead_threads=2 / sliced_threads=0 / nr=0 / decimate=0 / interlaced=0 / bluray_compat=0 / constrained_intra=0 / bframes=10 / b_pyramid=2 / b_adapt=2 / b_bias=0 / direct=3 / weightb=1 / open_gop=0 / weightp=2 / keyint=240 / keyint_min=24 / scenecut=40 / intra_refresh=0 / rc_lookahead=60 / rc=2pass / mbtree=0 / bitrate=2350 / ratetol=1.0 / qcomp=0.60 / qpmin=0 / qpmax=69 / qpstep=4 / cplxblur=20.0 / qblur=0.5 / vbv_maxrate=50000 / vbv_bufsize=62500 / nal_hrd=none / filler=0 / ip_ratio=1.40 / pb_ratio=1.30 / aq=1:0.80 Language : English Default : Yes Forced : No Audio #1 ID : 2 Format : AC-3 Format/Info : Audio Coding 3 Commercial name : Dolby Digital Codec ID : A_AC3 Duration : 1 h 47 min Bit rate mode : Constant Bit rate : 448 kb/s Channel(s) : 6 channels Channel layout : L R C LFE Ls Rs Sampling rate : 48.0 kHz Frame rate : 31.250 FPS (1536 SPF) Compression mode : Lossy Stream size : 345 MiB (14%) Title : Dub Language : Russian Service kind : Complete Main Default : Yes Forced : Yes Audio #2 ID : 3 Format : AC-3 Format/Info : Audio Coding 3 Commercial name : Dolby Digital Codec ID : A_AC3 Duration : 1 h 47 min Bit rate mode : Constant Bit rate : 448 kb/s Channel(s) : 6 channels Channel layout : L R C LFE Ls Rs Sampling rate : 48.0 kHz Frame rate : 31.250 FPS (1536 SPF) Compression mode : Lossy Stream size : 345 MiB (14%) Title : Original Language : English Service kind : Complete Main Default : Yes Forced : No Text #1 ID : 4 Format : UTF-8 Codec ID : S_TEXT/UTF8 Codec ID/Info : UTF-8 Plain Text Duration : 1 h 42 min Bit rate : 49 b/s Count of elements : 1158 Stream size : 37.4 KiB (0%) Title : Full Language : Russian Default : No Forced : No Text #2 ID : 5 Format : UTF-8 Codec ID : S_TEXT/UTF8 Codec ID/Info : UTF-8 Plain Text Duration : 1 h 40 min Bit rate : 41 b/s Count of elements : 1164 Stream size : 30.6 KiB (0%) Title : Full Language : English Default : No Forced : No Text #3 ID : 6 Format : UTF-8 Codec ID : S_TEXT/UTF8 Codec ID/Info : UTF-8 Plain Text Duration : 1 h 42 min Bit rate : 46 b/s Count of elements : 1380 Stream size : 35.3 KiB (0%) Title : SDH Language : English Default : No Forced : No Menu #1 00:00:00.000 : :Глава 01 00:03:59.072 : :Глава 02 00:10:02.477 : :Глава 03 00:14:31.662 : :Глава 04 00:20:31.147 : :Глава 05 00:25:38.704 : :Глава 06 00:28:25.454 : :Глава 07 00:31:40.107 : :Глава 08 00:39:23.027 : :Глава 09 00:46:20.361 : :Глава 10 00:50:50.756 : :Глава 11 00:55:13.435 : :Глава 12 01:02:19.069 : :Глава 13 01:07:33.508 : :Глава 14 01:15:59.263 : :Глава 15 01:20:56.060 : :Глава 16 01:26:34.398 : :Глава 17 01:30:25.629 : :Глава 18 01:37:53.117 : :Глава 19 01:43:18.150 : :Глава 20 Menu #2 00:00:00.000 : en:Глава 01 00:03:59.072 : en:Глава 02 00:10:02.477 : en:Глава 03 00:14:31.662 : en:Глава 04 00:20:31.147 : en:Глава 05 00:25:38.704 : en:Глава 06 00:28:25.454 : en:Глава 07 00:31:40.107 : en:Глава 08 00:39:23.027 : en:Глава 09 00:46:20.361 : en:Глава 10 00:50:50.756 : en:Глава 11 00:55:13.435 : en:Глава 12 01:02:19.069 : en:Глава 13 01:07:33.508 : en:Глава 14 01:15:59.263 : en:Глава 15 01:20:56.060 : en:Глава 16 01:26:34.398 : en:Глава 17 01:30:25.629 : en:Глава 18 01:37:53.117 : en:Глава 19 01:43:18.150 : en:Глава 20
Релиз от: Автор релиза:

Всего файлов в раздаче: 1 
In.the.Earth.2021.DUB.KHD.BDRip-AVC.[wolf1245.ExKinoRay].mkv2.44 GB

Похожие раздачи по запросу - Земле
2024-05-19 magnet VA - 3а мир на земле Vol.1 2024 MP3 503.55 MB ↑ 0 ↓ 0

Кто качает (только для создателя раздачи и модераторов): Локальные пиры отсутствуют

Комментарии


Зарегистрируйтесь чтобы добавить комментарий
Торрент клиент
byTorrent - программа для загрузки торрент-файлов.

Скачать byTorrent.exe (1,5 МБ)

Скачать byTorrent.zip (0,6 МБ)

Поддержи torrent.by
российских рублей
(300 российских рублей это 4$)

Обратная связь rss

End game ©