↑↓torrent.by
Поиск
Логин:  Регистрация
Пароль:

Ритуал / The Ritual (2017) BDRip 720p от DoMiNo & селезень | P, L, A

download Скачать торрент-файл   magnet Магнитная ссылка Размер: 4.67 GB Добавлен: 2024-05-12 17:00
Пиры будут получены из сети DHT
Последний сидер был замечен 2024-05-12 21:45
Информация о фильме Название: Ритуал Оригинальное название: The Ritual Год выхода: 2017 Жанр: Ужасы, мистика Режиссер: Дэвид Брукнер В ролях: Рейф Сполл, Роб Джеймс-Колльер, Сэм Тротон, Аршер Али, Пол Рейд, Мэттью Нихэм, Джейкоб Джеймс Бесвик, Керри МакЛин, Мария Эрвольтер, Хилари Ривз, Питер Лиддел, Франческа Мула, Георге Мезей, Зейн Ярку, Адриана Максут, Константин Кодреа О фильме: Четверо бывших одноклассников отправляются в намеченный ими поход по горам и лесам Швеции, чтобы почтить память погибшего друга. Вскоре они отклоняются от известного им маршрута и продолжают свой путь через дремучий лес. Очень скоро они понимают, что эта дикая местность хранит в себе некую мрачную тайну. Мужчин начинают преследовать странные видения и пугающие своим реализмом ночные кошмары, будто бы предупреждающие о приближении чего-то неведомого и ужасающего... Страна: Великобритания, Канада Студия: Aurum Producciones S.A., The Imaginarium Studios Продолжительность: 01:34:06 Перевод 1: Профессиональный (многоголосый, закадровый) | HDRezka Studio Перевод 2: Профессиональный (многоголосый, закадровый) | Jaskier Перевод 3: Любительский (многоголосый, закадровый) | BaibaKo Перевод 4: Авторский | Д. Есарев Субтитры: Русские (Full ), английские Файл Формат: Matroska Качество: BDRip 720p Видео: 1280x640 at 23.976 fps, x264@L4.1, ~4346 kbps Аудио 1: AC3, 6 ch, ~448 kbps - | Русский | | HDRezka Studio Аудио 2: AC3, 6 ch, ~384 kbps - | Русский | | Jaskier Аудио 3: AC3, 6 ch, ~640 kbps - | Русский | | BaibaKo Аудио 4: AC3, 6 ch, ~640 kbps - | Русский | | Д. Есарев Аудио 5: AC3, 6 ch, ~640 kbps - | Английский | | Original Формат субтитров: softsub (SRT) ***Рип от: -=DoMiNo=-
[+] M/Ix264 : frame I:851 Avg QP:14.75 size:103777 x264 : frame P:29516 Avg QP:16.43 size: 44067 x264 : frame B:105009 Avg QP:18.44 size: 15983 x264 : consecutive B-frames: 2.9% 3.1% 8.4% 10.9% 13.0% 51.5% 4.8% 1.2% 1.9% 0.5% 0.4% 0.7% 0.4% General Unique ID : 335261192480624153680325262744946413554 (0xFC38F4FC9265340DCABF157262730FF2) Complete name : D:The.Ritual.2017.BDRip.720p.x264.seleZen.mkv Format : Matroska Format version : Version 4 File size : 4.67 GiB Duration : 1 h 34 min Overall bit rate : 7 102 kb/s Movie name : The.Ritual.2017.BDRip.720p.x264.seleZen Encoded date : UTC 2023-01-06 18:51:15 Writing application : mkvmerge v73.0.0 ('25 or 6 to 4') 64-bit Writing library : libebml v1.4.4 + libmatroska v1.7.1 Cover : Yes Attachments : cover.jpg / small_cover.jpg Video ID : 1 Format : AVC Format/Info : Advanced Video Codec Format profile : High@L4.1 Format settings : CABAC / 10 Ref Frames Format settings, CABAC : Yes Format settings, Reference : 10 frames Codec ID : V_MPEG4/ISO/AVC Duration : 1 h 34 min Bit rate : 4 346 kb/s Width : 1 280 pixels Height : 640 pixels Display aspect ratio : 2.000 Frame rate mode : Constant Frame rate : 23.976 (24000/1001) FPS Color space : YUV Chroma subsampling : 4:2:0 Bit depth : 8 bits Scan type : Progressive Bits/(Pixel*Frame) : 0.221 Stream size : 2.86 GiB (61%) Title : -=DoMiNo=- Writing library : x264 core 164 by -=DoMiNo=- Encoding settings : cabac=1 / ref=10 / deblock=1:-3:-3 / analyse=0x3:0x133 / me=umh / subme=11 / psy=1 / psy_rd=1.03:0.05 / mixed_ref=1 / me_range=48 / chroma_me=1 / trellis=2 / 8x8dct=1 / cqm=0 / deadzone=21,11 / fast_pskip=0 / chroma_qp_offset=-3 / threads=20 / lookahead_threads=5 / sliced_threads=0 / nr=0 / decimate=1 / interlaced=0 / bluray_compat=0 / constrained_intra=0 / bframes=12 / b_pyramid=2 / b_adapt=2 / b_bias=0 / direct=1 / weightb=1 / open_gop=0 / weightp=2 / keyint=250 / keyint_min=23 / scenecut=40 / intra_refresh=0 / rc=crf / mbtree=0 / crf=18.0 / qcomp=0.60 / qpmin=0 / qpmax=69 / qpstep=4 / ip_ratio=1.35 / pb_ratio=1.25 / aq=3:0.80 Language : English Default : Yes Forced : No Color range : Limited Matrix coefficients : BT.709 Audio #1 ID : 2 Format : AC-3 Format/Info : Audio Coding 3 Commercial name : Dolby Digital Codec ID : A_AC3 Duration : 1 h 34 min Bit rate mode : Constant Bit rate : 448 kb/s Channel(s) : 6 channels Channel layout : L R C LFE Ls Rs Sampling rate : 48.0 kHz Frame rate : 31.250 FPS (1536 SPF) Compression mode : Lossy Stream size : 302 MiB (6%) Title : MVO (HDRezka Studio) Language : Russian Service kind : Complete Main Default : Yes Forced : Yes Audio #2 ID : 3 Format : AC-3 Format/Info : Audio Coding 3 Commercial name : Dolby Digital Codec ID : A_AC3 Duration : 1 h 34 min Bit rate mode : Constant Bit rate : 384 kb/s Channel(s) : 6 channels Channel layout : L R C LFE Ls Rs Sampling rate : 48.0 kHz Frame rate : 31.250 FPS (1536 SPF) Compression mode : Lossy Stream size : 258 MiB (5%) Title : MVO (Jaskier) Language : Russian Service kind : Complete Main Default : No Forced : No Audio #3 ID : 4 Format : AC-3 Format/Info : Audio Coding 3 Commercial name : Dolby Digital Codec ID : A_AC3 Duration : 1 h 34 min Bit rate mode : Constant Bit rate : 640 kb/s Channel(s) : 6 channels Channel layout : L R C LFE Ls Rs Sampling rate : 48.0 kHz Frame rate : 31.250 FPS (1536 SPF) Compression mode : Lossy Stream size : 431 MiB (9%) Title : MVO (BaibaKo) Language : Russian Service kind : Complete Main Default : No Forced : No Audio #4 ID : 5 Format : AC-3 Format/Info : Audio Coding 3 Commercial name : Dolby Digital Codec ID : A_AC3 Duration : 1 h 34 min Bit rate mode : Constant Bit rate : 640 kb/s Channel(s) : 6 channels Channel layout : L R C LFE Ls Rs Sampling rate : 48.0 kHz Frame rate : 31.250 FPS (1536 SPF) Compression mode : Lossy Stream size : 431 MiB (9%) Title : AVO (Д. Есарев) Language : Russian Service kind : Complete Main Default : No Forced : No Audio #5 ID : 6 Format : AC-3 Format/Info : Audio Coding 3 Commercial name : Dolby Digital Codec ID : A_AC3 Duration : 1 h 34 min Bit rate mode : Constant Bit rate : 640 kb/s Channel(s) : 6 channels Channel layout : L R C LFE Ls Rs Sampling rate : 48.0 kHz Frame rate : 31.250 FPS (1536 SPF) Compression mode : Lossy Stream size : 431 MiB (9%) Title : Original Language : English Service kind : Complete Main Default : No Forced : No Text #1 ID : 7 Format : UTF-8 Codec ID : S_TEXT/UTF8 Codec ID/Info : UTF-8 Plain Text Duration : 1 h 26 min Bit rate : 71 b/s Count of elements : 809 Stream size : 45.0 KiB (0%) Title : Full Language : Russian Default : No Forced : No Text #2 ID : 8 Format : UTF-8 Codec ID : S_TEXT/UTF8 Codec ID/Info : UTF-8 Plain Text Duration : 1 h 26 min Bit rate : 38 b/s Count of elements : 860 Stream size : 24.4 KiB (0%) Title : Full Language : English Default : No Forced : No Text #3 ID : 9 Format : UTF-8 Codec ID : S_TEXT/UTF8 Codec ID/Info : UTF-8 Plain Text Duration : 1 h 29 min Bit rate : 53 b/s Count of elements : 1212 Stream size : 34.8 KiB (0%) Title : SDH Language : English Default : No Forced : No Menu 00:00:00.000 : en:Chapter 1 00:07:29.449 : en:Chapter 2 00:15:23.129 : en:Chapter 3 00:23:16.269 : en:Chapter 4 00:30:16.897 : en:Chapter 5 00:38:02.822 : en:Chapter 6 00:45:40.027 : en:Chapter 7 00:53:25.577 : en:Chapter 8 01:01:12.793 : en:Chapter 9 01:09:04.849 : en:Chapter 10 01:17:13.837 : en:Chapter 11 01:25:05.765 : en:Chapter 12
[+] Скриншоты
Релиз: Присоединяйся к: Кликай на баннеры.

Всего файлов в раздаче: 1 
The.Ritual.2017.BDRip.720p.x264.seleZen.mkv4.67 GB

Комментарии


Зарегистрируйтесь чтобы добавить комментарий
Торрент клиент
byTorrent - программа для загрузки торрент-файлов.

Скачать byTorrent.exe (1,5 МБ)

Скачать byTorrent.zip (0,6 МБ)

Поддержи torrent.by
российских рублей
(300 российских рублей это 4$)

Обратная связь rss

End game ©