↑↓torrent.by
Поиск
Логин:  Регистрация
Пароль:

Шевалье / Chevalier (2022) WEB-DLRip-AVC от DoMiNo & селезень | P | Jaskier

download Скачать торрент-файл   magnet Магнитная ссылка Размер: 1.54 GB Добавлен: 2024-05-12 17:00
Пиры будут получены из сети DHT
Последний сидер был замечен 2024-05-12 17:00
Информация о фильме Название: Шевалье Оригинальное название: Chеvalier Год выхода: 2022 Жанр: Драма, биография, история, музыка Режиссер: Стивен Уильямс В ролях: Келвин Харрисон, Самара Уивинг, Люси Бойнтон, Ронки Адеколуэхо, Мартон Чокаш, Алекс Фитцалан, Минни Драйвер, Шан Клиффорд, Генри Ллойд-Хьюз, Джим Хай Описание: Действие фильма происходит в конце XVIII века при французском королевском дворе. Главный герой — темнокожий музыкант и композитор Жозеф Болонь, шевалье де Сен-Жорж, прозванный за свои таланты «чёрным Моцартом». Страна: США Студия: Element Pictures, Fox Searchlight Pictures, Stillking Films Продолжительность: 01:48:05 Перевод: Профессиональный (многоголосый, закадровый) | Jaskier Субтитры: Английские Файл Формат: Matroska Качество: WEB-DLRip-AVC Видео: 1024x554 at 23.976 fps, x264@L4.1, ~1654 kbps Аудио: AC3, 6 ch, ~384 kbps - | Русский | Формат субтитров: softsub (SRT) ***Рип от: -=DoMiNo=-
[+] M/IGeneral Unique ID : 81723618640978358266018291287244023444 (0x3D7B657C7706826C845B1A1702522694) Complete name : I:Chevаlier.2022.WEB-DLRip.x264.seleZen.mkv Format : Matroska Format version : Version 4 File size : 1.54 GiB Duration : 1 h 48 min Overall bit rate : 2 039 kb/s Frame rate : 23.976 FPS Movie name : Chevаlier.2022.WEB-DLRip.x264.seleZen Encoded date : 2023-06-26 07:04:16 UTC Writing application : mkvmerge v77.0 ('Elemental') 64-bit Writing library : libebml v1.4.4 + libmatroska v1.7.1 Video ID : 1 Format : AVC Format/Info : Advanced Video Codec Format profile : High@L4.1 Format settings : CABAC / 10 Ref Frames Format settings, CABAC : Yes Format settings, Reference : 10 frames Codec ID : V_MPEG4/ISO/AVC Duration : 1 h 48 min Bit rate : 1 654 kb/s Width : 1 024 pixels Height : 554 pixels Display aspect ratio : 1.85:1 Frame rate mode : Constant Frame rate : 23.976 (24000/1001) FPS Color space : YUV Chroma subsampling : 4:2:0 Bit depth : 8 bits Scan type : Progressive Bits/(Pixel*Frame) : 0.122 Stream size : 1.25 GiB (81%) Title : -=DoMiNo=- Writing library : x264 core 164 r3107+58M ae98796 t_mod_New | by -=DoMiNo=- | X86_64] Encoding settings : cabac=1 / ref=10 / deblock=1:-2:-1 / analyse=0x3:0x133 / me=umh / subme=10 / psy=1 / fade_compensate=0.00 / psy_rd=1.05:0.15 / mixed_ref=1 / me_range=32 / chroma_me=1 / trellis=2 / 8x8dct=1 / cqm=0 / deadzone=21,11 / fast_pskip=0 / chroma_qp_offset=-3 / threads=17 / lookahead_threads=4 / sliced_threads=0 / nr=0 / decimate=1 / interlaced=0 / bluray_compat=0 / constrained_intra=0 / fgo=0 / bframes=12 / b_pyramid=2 / b_adapt=2 / b_bias=0 / direct=3 / weightb=1 / open_gop=0 / weightp=2 / keyint=240 / keyint_min=23 / scenecut=40 / intra_refresh=0 / rc_lookahead=60 / rc=crf / mbtree=0 / crf=18.3000 / qcomp=0.60 / qpmin=0:0:0 / qpmax=69:69:69 / qpstep=4 / vbv_maxrate=50000 / vbv_bufsize=62500 / crf_max=0.0 / nal_hrd=none / filler=0 / ip_ratio=1.30 / pb_ratio=1.30 / aq=3:0.90 / aq-sensitivity=10.00 / aq-factor=1.00:1.00:1.00:1.00 / aq2=0 / aq3=0 Language : English Default : Yes Forced : No Color range : Limited Color primaries : BT.709 Transfer characteristics : BT.709 Matrix coefficients : BT.709 Audio ID : 2 Format : AC-3 Format/Info : Audio Coding 3 Commercial name : Dolby Digital Codec ID : A_AC3 Duration : 1 h 48 min Bit rate mode : Constant Bit rate : 384 kb/s Channel(s) : 6 channels Channel layout : L R C LFE Ls Rs Sampling rate : 48.0 kHz Frame rate : 31.250 FPS (1536 SPF) Compression mode : Lossy Stream size : 297 MiB (19%) Title : Jaskier Language : Russian Service kind : Complete Main Default : Yes Forced : Yes Text ID : 3 Format : UTF-8 Codec ID : S_TEXT/UTF8 Codec ID/Info : UTF-8 Plain Text Duration : 1 h 39 min Bit rate : 44 b/s Frame rate : 0.201 FPS Count of elements : 1197 Stream size : 32.5 KiB (0%) Language : English Default : No Forced : No Menu 00:00:00.000 : en:Chapter 01 00:07:24.000 : en:Chapter 02 00:10:35.000 : en:Chapter 03 00:15:18.000 : en:Chapter 04 00:26:15.000 : en:Chapter 05 00:32:13.000 : en:Chapter 06 00:44:11.000 : en:Chapter 07 00:58:09.000 : en:Chapter 08 01:11:10.000 : en:Chapter 09 01:14:50.000 : en:Chapter 10 01:19:25.000 : en:Chapter 11 01:24:24.000 : en:Chapter 12 01:28:25.000 : en:Chapter 13 01:31:58.000 : en:Chapter 14 01:40:55.000 : en:Chapter 15
Релиз: Присоединяйся к: Кликай на баннеры.

Всего файлов в раздаче: 1 
Chevalier.2022.WEB-DLRip.x264.seleZen.mkv1.54 GB

Комментарии


Зарегистрируйтесь чтобы добавить комментарий
Торрент клиент
byTorrent - программа для загрузки торрент-файлов.

Скачать byTorrent.exe (1,5 МБ)

Скачать byTorrent.zip (0,6 МБ)

Поддержи torrent.by
российских рублей
(300 российских рублей это 4$)

Обратная связь rss

End game ©