↑↓torrent.by
Поиск
Логин:  Регистрация
Пароль:

Эбигейл / Abigail (2024) WEB-DLRip от ExKinoRay | P2

download Скачать торрент-файл   magnet Магнитная ссылка Размер: 744.62 MB Раздают: 1 Качают: 0 Добавлен: 2024-05-12 17:00
Пиры будут получены из сети DHT
Последний сидер был замечен сегодня в 08:38
Информация о фильме Название: Эбигейл Оригинальное название: Abigail Год выхода: 2024 Жанр: ужасы Режиссер: Мэттью Беттинелли, Тайлер Джиллетт В ролях: Мелисса Баррера, Дэн Стивенс, Алиша Вейр, Уильям Кэтлетт, Кэтрин Ньютон, Кевин Дюран, Ангус Клауд, Джанкарло Эспозито, Мэттью Гуд О фильме: Банда наёмников по наводке похищает 12-летнюю балерину, дочь некоего богатого человека. Засев в уединённом особняке, они в течение 24 часов собираются ожидать выкуп, когда вдруг кто-то начинает сокращать их количество. Возраст: 18+ (зрителям, достигшим 18 лет. запрещено для детей) Страна: США, Ирландия, Канада Студия: Project X Entertainment, Québec Production Services Tax Credit, Radio Silence Productions, Wild Atlantic Pictures Продолжительность: 01:49:31 Перевод: Профессиональный двухголосый - ViruseProject Файл Кодек: XviD Качество: WEB-DLRip Видео: 688x288 (2.39:1), 23.976 fps, XviD build 67 ~810 kbps avg, 0.17 bit/pixel Звук: 48 kHz, MP3, 2 ch, 128 kbps avg Субтитры: Отсутствуют
[+] MediaInfoGeneral Complete name : D:Abigail.2024.WEB-DLRip.by.ExKinoRay & Shkiper.avi Format : AVI Format/Info : Audio Video Interleave Format settings : BitmapInfoHeader / WaveFormatEx File size : 745 MiB Duration : 1 h 49 min Overall bit rate : 951 kb/s Frame rate : 23.976 FPS Movie name : Abigail.2024.WEB-DLRip.by.ExKinoRay & Shkiper Writing application : Lavf58.29.100 Video ID : 0 Format : MPEG-4 Visual Format profile : Advanced Simple@L5 Format settings : BVOP1 / Custom Matrix Format settings, BVOP : 1 Format settings, QPel : No Format settings, GMC : No warppoints Format settings, Matrix : Custom Codec ID : XVID Codec ID/Hint : XviD Duration : 1 h 49 min Bit rate : 810 kb/s Width : 688 pixels Height : 288 pixels Display aspect ratio : 2.40:1 Frame rate : 23.976 (24000/1001) FPS Color space : YUV Chroma subsampling : 4:2:0 Bit depth : 8 bits Scan type : Progressive Compression mode : Lossy Bits/(Pixel*Frame) : 0.170 Stream size : 634 MiB (85%) Writing library : XviD 67 Audio ID : 1 Format : MPEG Audio Format version : Version 1 Format profile : Layer 3 Format settings : Joint stereo / MS Stereo Codec ID : 55 Codec ID/Hint : MP3 Duration : 1 h 49 min Bit rate mode : Constant Bit rate : 128 kb/s Channel(s) : 2 channels Sampling rate : 48.0 kHz Compression mode : Lossy Stream size : 100 MiB (13%) Alignment : Aligned on interleaves Interleave, duration : 24 ms (0.58 video frame) Title : ViruseProject Writing library : LAME3.100
[+] Скриншоты
Релиз от: Рип изготовил:

Всего файлов в раздаче: 1 
Abigail.2024.WEB-DLRip.by.ExKinoRay & Shkiper.avi744.62 MB

Похожие раздачи по запросу - Эбигейл
2024-05-14 magnet Эбигейл / Abigail (2024) UHD WEB-DL-HEVC 2160p | 4K | HDR | Dolby Vision Profile 8 | P, P2 20.21 GB ↑ 0 ↓ 2
2024-05-13 magnet Эбигейл / Abigail (2024) WEB-DLRip-AVC от DoMiNo & селезень | P, P2 | TVShows, Jaskier, ViruseProject 1.92 GB ↑ 0 ↓ 0
2024-05-12 magnet Эбигейл / Abigail (2024) WEB-DLRip-AVC от New-Team | P 2.23 GB ↑ 0 ↓ 0
2024-05-12 magnet Эбигейл / Abigail (2024) UHD WEB-DL-HEVC 2160p | 4K | HDR | Dolby Vision Profile 8 | P, P2 19.91 GB ↑ 0 ↓ 0
2024-05-12 magnet Эбигейл / Abigail (2024) UHD WEB-DL-HEVC 2160p | 4K | SDR | P, P2 | Jaskier, ViruseProject 12.51 GB ↑ 0 ↓ 0
2024-05-12 magnet Эбигейл / Abigail (2024) WEB-DL 1080p от New-Team | P, P2 6.39 GB ↑ 0 ↓ 0
2024-05-12 magnet Эбигейл / Abigail (2024) WEB-DLRip от New-Team | P | Jaskier 1.46 GB ↑ 0 ↓ 0

Кто качает (только для создателя раздачи и модераторов):
ПользовательIP:портОтдалПринялОстатокСидируетТоррент клиентОбновился
1 Аноним 31.181.54.42:57196 0.00 B 0.00 B 0.00 B да -ZO3002- 08:38 2024-06-22

Комментарии


Зарегистрируйтесь чтобы добавить комментарий
Торрент клиент
byTorrent - программа для загрузки торрент-файлов.

Скачать byTorrent.exe (1,5 МБ)

Скачать byTorrent.zip (0,6 МБ)

Поддержи torrent.by
российских рублей
(300 российских рублей это 4$)

Обратная связь rss

End game ©