↑↓torrent.by
Поиск
Логин:  Регистрация
Пароль:

2012 / 2012 (2009) WEB-DLRip-AVC | D | Open Matte

download Скачать торрент-файл   magnet Магнитная ссылка Размер: 2.71 GB Добавлен: 2024-05-12 17:00
Пиры будут получены из сети DHT
Последний сидер был замечен 2024-05-13 21:56
Информация о фильме Название: 2012 Оригинальное название: 2012 Год выхода: 2009 Жанр: фантастика, боевик, приключения Режиссер: Роланд Эммерих В ролях: Джон Кьюсак, Аманда Пит, Чиветель Эджиофор, Тэнди Ньютон, Оливер Платт, Томас МакКарти, Вуди Харрельсон, Дэнни Гловер, Лиам Джеймс, Морган Лили О фильме: Согласно календарю индейцев Майя, в 2012 году планеты солнечной системы окажутся на одной линии друг с другом, что приведет к глобальным природным катаклизмам: сильнейшие землетрясения, цунами и извержения вулканов превратят страны и целые континенты в руины. Недавно ученые подтвердили, что этот миф может стать реальностью. Выпущено: Columbia Pictures Продолжительность: 02:38:03 Перевод: Дубляж, Blu-ray CEE Субтитры: Russian (Forced) Файл Кодек: x264 Качество: WEB-DLRip-AVC | Open Matte Видео: High@L4.1 / ~2000 kb/s / 1024x576 / 23.976 fps Аудио: Dolby Digital Audio / 5.1 / 48 kHz / 448 kbps Формат субтитров: softsub (SRT) ***Релиз от: -=DoMiNo=- 2012 / 2012 (2009) WEB-DLRip-AVC | D | Open Matte_1.45 GB
[+] BLU-RAY vs WEB-DL
[+] Примечание:Исходник видео WEB-DL Amazon STARZ (Периодически появляется логотип) Open Matte-версия фильма имеет большее наполнение кадра по сравнению с Blu-ray. За исходник спасибо spartanec163. Английские форсированные субтитры на иностранные языки были вшиты по умолчанию в видеоряд. Русские форсированные субтитры написаны заново и по-секундно подогнаны под тайминг WEB-DL Amazon. Требуются только для дубляжа.
[+] MediaInfo:General Complete name : 2012.(2009).WEB_DLRIP-AVC.O.M..mkv Format : Matroska Format version : Version 4 / Version 2 File size : 2.71 GiB Duration : 2 h 38 min Overall bit rate : 2 451 kb/s Movie name : 2012 Deion : Согласно календарю индейцев Майя, в 2012 году планеты солнечной системы окажутся на одной линии друг с другом, что приведет к глобальным природным катаклизмам: сильнейшие землетрясения, цунами и извержения вулканов превратят страны и целые континенты в руины. Недавно ученые подтвердили, что этот миф может стать реальностью. Attachments : poster.jpg ACTORS : John Cusack, Amanda Peet, Chiwetel Ejiofor, Thandie Newton, Oliver Platt, Tom McCarthy, Woody Harrelson, Danny Glover, Liam James, Morgan Lily, Beatrice Rosen, Johann Urb, John Billingsley, Chin Han, Osric Chau, Lisa Lu, Chang Tseng, Blu Mankuma, George Segal, Stephen McHattie, Jimi Mistry, Ryan McDonald, Zlatko Burić, Philippe Haussmann, Alexandre Haussmann, Beverley Elliott, Patrick Bauchau, Tanya Champoux, Merrilyn Gann, Henry O, Patrick Gilmore, Dean Marshall, Ron Selmour, Viv Leacock, Chris Boyd, Jason Diablo, Anna Mae Routledge, Jill Morrison, Chad Riley, Jason Anthony Griffith, Alex Zahara, Donna Yamamoto, Doron Bell, David Orth, Ty Olsson, Lyndall Grant, Agam Darshi, Raj Lal, Alexandra Castillo, John Mee, Candus Churchill, Luis Javier, Sean Tyson, Jody Thompson COUNTRY : Canada, United States DATE : 2009-10-10 DIRECTOR : Roland Emmerich GENRE : боевик, приключения, фантастика ITUNEXTC : mpaa|PG|200| PRODUCER : Aaron Boyd, Volker Engel, Larry J. Franco, Mark Gordon, Harald Kloser, Marc Weigert, Kirstin Winkler PUBLISHER : Columbia Pictures, Centropolis Entertainment, Farewell Productions, The Mark Gordon Company RATING : 5.60 Video ID : 1 Format : AVC Format/Info : Advanced Video Codec Format profile : High@L4.1 Format settings : CABAC / 10 Ref Frames Format settings, CABAC : Yes Format settings, ReFrames : 10 frames Codec ID : V_MPEG4/ISO/AVC Duration : 2 h 38 min Bit rate : 2 000 kb/s Width : 1 024 pixels Height : 576 pixels Display aspect ratio : 16:9 Frame rate mode : Constant Frame rate : 23.976 (24000/1001) FPS Color space : YUV Chroma subsampling : 4:2:0 Bit depth : 8 bits Scan type : Progressive Bits/(Pixel*Frame) : 0.141 Stream size : 2.16 GiB (80%) Title : RIP_BY_-=DoMiNo=- Writing library : x264 core 155 r2901M 7d0ff22 Encoding settings : cabac=1 / ref=10 / deblock=1:-3:-3 / analyse=0x3:0x133 / me=umh / subme=11 / psy=1 / psy_rd=1.00:0.03 / mixed_ref=1 / me_range=32 / chroma_me=1 / trellis=2 / 8x8dct=1 / cqm=0 / deadzone=21,11 / fast_pskip=1 / chroma_qp_offset=-3 / threads=6 / lookahead_threads=1 / sliced_threads=0 / nr=0 / decimate=1 / interlaced=0 / bluray_compat=0 / constrained_intra=0 / bframes=9 / b_pyramid=2 / b_adapt=2 / b_bias=0 / direct=3 / weightb=1 / open_gop=0 / weightp=2 / keyint=240 / keyint_min=24 / scenecut=40 / intra_refresh=0 / rc_lookahead=60 / rc=2pass / mbtree=1 / bitrate=2000 / ratetol=1.0 / qcomp=0.60 / qpmin=0 / qpmax=69 / qpstep=4 / cplxblur=20.0 / qblur=0.5 / ip_ratio=1.40 / aq=1:1.00 Language : English Default : Yes Forced : No Color range : Limited Color primaries : BT.709 Transfer characteristics : BT.709 Matrix coefficients : BT.709 Audio ID : 2 Format : AC-3 Format/Info : Audio Coding 3 Codec ID : A_AC3 Duration : 2 h 38 min Bit rate mode : Constant Bit rate : 448 kb/s Channel(s) : 6 channels Channel positions : Front: L C R, Side: L R, LFE Sampling rate : 48.0 kHz Frame rate : 31.250 FPS (1536 SPF) Bit depth : 16 bits Compression mode : Lossy Stream size : 506 MiB (18%) Title : DUB - Blu-ray CEE Language : Russian Service kind : Complete Main Default : Yes Forced : No Text ID : 3 Format : UTF-8 Codec ID : S_TEXT/UTF8 Codec ID/Info : UTF-8 Plain Text Title : Russian Forced Language : Russian Default : Yes Forced : No
[+] Скриншоты

Всего файлов в раздаче: 1 
2012.(2009).WEB_DLRIP-AVC.O.M.[-=DoMiNo=-].mkv2.71 GB

Похожие раздачи по запросу - 2012
Сегодня magnet Владимир Поселягин - Сборник произведений (2012-2024) FB2 365.54 MB ↑ 0 ↓ 0
Вчера magnet Мосгаз [S01-10 из 10] (2012-2024) WEB-DLRip, WEBRip от Generalfilm | КПК 15.66 GB ↑ 0 ↓ 0
2024-05-21 magnet Владимир Поселягин - Сборник произведений (2012-2024) FB2 364.37 MB ↑ 0 ↓ 0
2024-05-20 magnet Знания Иллюминати / Illuminati Knowledge (2012) BDRip 1080p 4.76 GB ↑ 0 ↓ 0
2024-05-19 magnet Верзила / The Tall Man (2012) BDRip 1080p | Лицензия 7.44 GB ↑ 0 ↓ 0
2024-05-19 magnet Закон доблести / Act of Valor (2012) HDRip-AVC от ExKinoRay | D 743.77 MB ↑ 0 ↓ 0
2024-05-18 magnet Без следа [01-22 из 22] (2011-2012) WEB-DLRip-AVC 15.46 GB ↑ 0 ↓ 0

Кто качает (только для создателя раздачи и модераторов): Локальные пиры отсутствуют

Комментарии


Зарегистрируйтесь чтобы добавить комментарий
Торрент клиент
byTorrent - программа для загрузки торрент-файлов.

Скачать byTorrent.exe (1,5 МБ)

Скачать byTorrent.zip (0,6 МБ)

Поддержи torrent.by
российских рублей
(300 российских рублей это 4$)

Обратная связь rss

End game ©