↑↓torrent.by
Поиск
Логин:  Регистрация
Пароль:

Эбигейл / Abigail (2024) UHD WEB-DL-HEVC 2160p | 4K | HDR | Dolby Vision Profile 8 | P, P2

download Скачать торрент-файл   magnet Магнитная ссылка Размер: 19.91 GB Раздают: 0 Качают: 1 Добавлен: 2024-05-12 17:00
Пиры будут получены из сети DHT
Последний сидер был замечен вчера в 23:15
Название: Эбигейл Оригинальное название: Abigail Год выхода: 2024 Производство: США, Ирландия, Канада / Project X Entertainment, Québec Production Services Tax Credit, Radio Silence Productions, Wild Atlantic Pictures Жанр: Ужасы, триллер Перевод: Профессиональный многоголосый, профессиональный двухголосый Продолжительность: 01:49:31 Режиссёры: Мэттью Беттинелли, Тайлер Джиллетт В ролях: Мелисса Баррера, Дэн Стивенс, Алиша Вейр, Уильям Кэтлетт, Кэтрин Ньютон, Кевин Дюран, Ангус Клауд, Джанкарло Эспозито, Мэттью Гуд Описание: После того как группа преступников похищает 12-летнюю дочь-балерину влиятельного деятеля преступного мира, всё, что им нужно сделать, чтобы получить выкуп в 50 миллионов фунтов стерлингов - это присматривать за девочкой в течение ночи. В изолированном особняке похитители один за другим начинают терять силы и, к своему ужасу, обнаруживают, что заперты внутри вместе с не совсем обычной девочкой. Формат: MKV Качество: WEB-DL 2160p Видео: MPEG-H HEVC / ~24.5 Мбит/с / 3840x1600 / 0.166 бит/(Пиксели*Кадры) / 23,976fps Аудио 01: АС-3, 6 ch, 384 kbps | Русский, MVO | Jaskier 18+ | Аудио 02: АС-3, 2 ch, 384 kbps | Русский, DVO | ViruseProject 18+ | Аудио 03: Е-AC3+Atmos, 6 ch, 768 kbps | Original | Субтитры: Русские (Full), английские (Full, SDH)
[+] MediainfoОбщее Уникальный идентификатор : 15451215712315585309916783730902526553 (0xB9FCBC037A22BF4147408090AA16A59) Полное имя : F:Abigail.2024.x265.WEB-DL.2160p.HDR-DV.mkv Формат : Matroska Версия формата : Version 4 Размер файла : 19,9 Гбайт Продолжительность : 1 ч. 49 м. Общий поток : 26,0 Мбит/сек Дата кодирования : UTC 2024-05-11 16:50:42 Программа кодирования : mkvmerge v83.0 ('Circle Of Friends') 64-bit Библиотека кодирования : libebml v1.4.5 + libmatroska v1.7.1 Видео Идентификатор : 1 Формат : HEVC Формат/Информация : High Efficiency Video Coding Профиль формата : Main 10@L5@High HDR format : Dolby Vision, Version 1.0, dvhe.08.06, BL+RPU, HDR10 compatible / SMPTE ST 2094 App 4, Version 1, HDR10+ Profile B compatible Идентификатор кодека : V_MPEGH/ISO/HEVC Продолжительность : 1 ч. 49 м. Битрейт : 24,5 Мбит/сек Ширина : 3 840 пикселей Высота : 1 600 пикселей Соотношение сторон : 2,40:1 Режим частоты кадров : Постоянный Частота кадров : 23,976 (24000/1001) кадра/сек Цветовое пространство : YUV Субдискретизация насыщенности : 4:2:0 (Type 2) Битовая глубина : 10 бит Бит/(Пиксели*Кадры) : 0.166 Размер потока : 18,7 Гбайт (94%) Язык : English Default : Да Forced : Да Цветовой диапазон : Limited Основные цвета : BT.2020 Характеристики трансфера : PQ Коэффициенты матрицы : BT.2020 non-constant Mastering display color primaries : Display P3 Mastering display luminance : min: 0.0050 cd/m2, max: 4000 cd/m2 Maximum Content Light Level : 1048 cd/m2 Maximum Frame-Average Light Level : 142 cd/m2 Аудио #1 Идентификатор : 2 Формат : AC-3 Формат/Информация : Audio Coding 3 Коммерческое название : Dolby Digital Идентификатор кодека : A_AC3 Продолжительность : 1 ч. 49 м. Вид битрейта : Постоянный Битрейт : 384 Кбит/сек Каналы : 6 каналов Channel layout : L R C LFE Ls Rs Частота : 48,0 КГц Частота кадров : 31,250 кадров/сек (1536 SPF) Метод сжатия : С потерями Размер потока : 301 Мбайт (1%) Заголовок : MVO (Jaskier) Язык : Russian Service kind : Complete Main Default : Да Forced : Да Аудио #2 Идентификатор : 3 Формат : AC-3 Формат/Информация : Audio Coding 3 Коммерческое название : Dolby Digital Идентификатор кодека : A_AC3 Продолжительность : 1 ч. 49 м. Вид битрейта : Постоянный Битрейт : 384 Кбит/сек Каналы : 2 канала Channel layout : L R Частота : 48,0 КГц Частота кадров : 31,250 кадров/сек (1536 SPF) Метод сжатия : С потерями Размер потока : 301 Мбайт (1%) Заголовок : DVO (ViruseProject) Язык : Russian Service kind : Complete Main Default : Нет Forced : Нет Аудио #3 Идентификатор : 4 Формат : E-AC-3 JOC Формат/Информация : Enhanced AC-3 with Joint Object Coding Коммерческое название : Dolby Digital Plus with Dolby Atmos Идентификатор кодека : A_EAC3 Продолжительность : 1 ч. 49 м. Вид битрейта : Постоянный Битрейт : 768 Кбит/сек Каналы : 6 каналов Channel layout : L R C LFE Ls Rs Частота : 48,0 КГц Частота кадров : 31,250 кадров/сек (1536 SPF) Метод сжатия : С потерями Размер потока : 602 Мбайт (3%) Язык : English Service kind : Complete Main Default : Нет Forced : Нет Complexity index : 16 Number of dynamic objects : 15 Bed channel count : 1 канал Bed channel configuration : LFE Текст #1 Идентификатор : 5 Формат : UTF-8 Идентификатор кодека : S_TEXT/UTF8 Идентификатор кодека/Информация : UTF-8 Plain Text Продолжительность : 1 ч. 45 м. Битрейт : 76 бит/сек Частота кадров : 0,201 кадр/сек Count of elements : 1271 Размер потока : 58,8 Кбайт (0%) Заголовок : stirlooo 18+ Язык : Russian Default : Нет Forced : Нет Текст #2 Идентификатор : 6 Формат : UTF-8 Идентификатор кодека : S_TEXT/UTF8 Идентификатор кодека/Информация : UTF-8 Plain Text Продолжительность : 1 ч. 44 м. Битрейт : 50 бит/сек Частота кадров : 0,235 кадр/сек Count of elements : 1478 Размер потока : 38,8 Кбайт (0%) Заголовок : Full Язык : English Default : Нет Forced : Нет Текст #3 Идентификатор : 7 Формат : UTF-8 Идентификатор кодека : S_TEXT/UTF8 Идентификатор кодека/Информация : UTF-8 Plain Text Продолжительность : 1 ч. 49 м. Битрейт : 59 бит/сек Частота кадров : 0,284 кадр/сек Count of elements : 1864 Размер потока : 47,7 Кбайт (0%) Заголовок : SDH Язык : English Default : Нет Forced : Нет Меню 00:00:00.000 : en:Chapter 01 00:09:30.779 : en:Chapter 02 00:15:10.285 : en:Chapter 03 00:19:58.156 : en:Chapter 04 00:25:56.514 : en:Chapter 05 00:32:13.892 : en:Chapter 06 00:38:36.983 : en:Chapter 07 00:46:24.951 : en:Chapter 08 00:53:19.574 : en:Chapter 09 00:59:57.430 : en:Chapter 10 01:04:18.900 : en:Chapter 11 01:14:32.597 : en:Chapter 12 01:23:23.211 : en:Chapter 13 01:31:34.494 : en:Chapter 14 01:37:43.405 : en:Chapter 15 01:44:59.132 : en:Chapter 16
[+] Скриншоты

Всего файлов в раздаче: 1 
Abigail.2024.x265.WEB-DL.2160p.HDR-DV.mkv19.91 GB

Похожие раздачи по запросу - Эбигейл
2024-05-14 magnet Эбигейл / Abigail (2024) UHD WEB-DL-HEVC 2160p | 4K | HDR | Dolby Vision Profile 8 | P, P2 20.21 GB ↑ 1 ↓ 4
2024-05-13 magnet Эбигейл / Abigail (2024) WEB-DLRip-AVC от DoMiNo & селезень | P, P2 | TVShows, Jaskier, ViruseProject 1.92 GB ↑ 0 ↓ 0
2024-05-12 magnet Эбигейл / Abigail (2024) WEB-DLRip-AVC от New-Team | P 2.23 GB ↑ 0 ↓ 2
2024-05-12 magnet Эбигейл / Abigail (2024) UHD WEB-DL-HEVC 2160p | 4K | SDR | P, P2 | Jaskier, ViruseProject 12.51 GB ↑ 0 ↓ 1
2024-05-12 magnet Эбигейл / Abigail (2024) WEB-DLRip от ExKinoRay | P2 744.62 MB ↑ 1 ↓ 0
2024-05-12 magnet Эбигейл / Abigail (2024) WEB-DL 1080p от New-Team | P, P2 6.39 GB ↑ 0 ↓ 4
2024-05-12 magnet Эбигейл / Abigail (2024) WEB-DLRip от New-Team | P | Jaskier 1.46 GB ↑ 0 ↓ 0

Кто качает (только для создателя раздачи и модераторов):
ПользовательIP:портОтдалПринялОстатокСидируетТоррент клиентОбновился
1 Аноним 46.191.187.54:33249 32.00 kB 15.04 GB 19.83 GB нет -qB4390- 17:35 2024-05-22

Комментарии


Зарегистрируйтесь чтобы добавить комментарий
Торрент клиент
byTorrent - программа для загрузки торрент-файлов.

Скачать byTorrent.exe (1,5 МБ)

Скачать byTorrent.zip (0,6 МБ)

Поддержи torrent.by
российских рублей
(300 российских рублей это 4$)

Обратная связь rss

End game ©