↑↓torrent.by
Поиск
Логин:  Регистрация
Пароль:

Эбигейл / Abigail (2024) UHD WEB-DL-HEVC 2160p | 4K | SDR | P, P2 | Jaskier, ViruseProject

download Скачать торрент-файл   magnet Магнитная ссылка Размер: 12.51 GB Раздают: 0 Качают: 1 Добавлен: 2024-05-12 17:00
Пиры будут получены из сети DHT
Последний сидер был замечен вчера в 21:16
Информация о фильме Название: Эбигейл Оригинальное название: Abigail Год выхода: 2024 Жанр: Ужасы, триллер Режиссер: Мэттью Беттинелли, Тайлер Джиллетт В ролях: Мелисса Баррера, Дэн Стивенс, Алиша Вейр, Уильям Кэтлетт, Кэтрин Ньютон, Кевин Дюран, Ангус Клауд, Джанкарло Эспозито, Мэттью Гуд и др. О фильме: Банда преступников похищает 12-летнюю балерину, дочь криминального авторитета. Спрятавшись в уединённом особняке, они ещё не догадываются, что влиятельный отец девочки - далеко не главная их проблема. Страна: США, Ирландия, Канада / Project X Entertainment, Québec Production Services Tax Credit, Radio Silence Productions, Wild Atlantic Pictures Продолжительность: 01:49:31 Перевод 1: Профессиональный (многоголосый закадровый) | Jaskier | 18+ Перевод 2: Профессиональный (двухголосый, закадровый) | ViruseProject Субтитры: Русские (Full (stirlooo 18+)), английские Файл Формат: Matroska Качество: WEB-DL-HEVC 2160p | 4K | SDR Видео: HEVC/H.265, 3840х1600, ~14,6 Mbps Аудио 1: AC3, 6 ch, 384 kbps, русский (MVO Jaskier) (18+) Аудио 2: AC3, 2 ch, 384 kbps, русский (DVO ViruseProject) (18+) Аудио 3: AC3, 6 ch, 640 kbps, английский Формат субтитров: softsub (SRT)
[+] M/IОбщее Уникальный идентификатор : 234823162382396591367199050816126600124 (0xB0A94BC719F5E5E1803F3D7D4B3643BC) Полное имя : Эбигейл. 2024 (HEVC.SDR.WEB-DL 2160p).mkv Формат : Matroska Версия формата : Version 2 Размер файла : 12,5 Гбайт Продолжительность : 1 ч. 49 м. Общий поток : 16,3 Мбит/сек Частота кадров : 23,976 кадра/сек Название фильма : Abigail.2024.HEVC.h.265.SDR.WEB-DL 2160p.Atla22 Дата кодирования : 2024-05-11 17:49:55 UTC Программа кодирования : mkvmerge v7.8.0 ('River Man') 32bit built on Apr 3 2015 12:11:22 Библиотека кодирования : libebml v1.3.1 + libmatroska v1.4.2 Обложка : Yes Attachments : Cover_Abigail.jpg Видео Идентификатор : 1 Формат : HEVC Формат/Информация : High Efficiency Video Coding Профиль формата : Main@L5@Main Идентификатор кодека : V_MPEGH/ISO/HEVC Продолжительность : 1 ч. 49 м. Битрейт : 14,6 Мбит/сек Ширина : 3 840 пикселей Высота : 1 600 пикселей Соотношение сторон : 2,40:1 Режим частоты кадров : Постоянный Частота кадров : 23,976 (24000/1001) кадра/сек Цветовое пространство : YUV Субдискретизация насыщенности : 4:2:0 Битовая глубина : 8 бит Бит/(Пиксели*Кадры) : 0.099 Размер потока : 11,2 Гбайт (89%) Язык : English Default : Да Forced : Нет Цветовой диапазон : Limited Основные цвета : BT.709 Характеристики трансфера : BT.709 Коэффициенты матрицы : BT.709 Аудио #1 Идентификатор : 2 Формат : AC-3 Формат/Информация : Audio Coding 3 Коммерческое название : Dolby Digital Идентификатор кодека : A_AC3 Продолжительность : 1 ч. 49 м. Вид битрейта : Постоянный Битрейт : 384 Кбит/сек Каналы : 6 каналов Channel layout : L R C LFE Ls Rs Частота : 48,0 КГц Частота кадров : 31,250 кадров/сек (1536 SPF) Метод сжатия : С потерями Размер потока : 301 Мбайт (2%) Заголовок : Jaskier Язык : Russian Service kind : Complete Main Default : Да Forced : Нет Аудио #2 Идентификатор : 3 Формат : AC-3 Формат/Информация : Audio Coding 3 Коммерческое название : Dolby Digital Идентификатор кодека : A_AC3 Продолжительность : 1 ч. 49 м. Вид битрейта : Постоянный Битрейт : 384 Кбит/сек Каналы : 2 канала Channel layout : L R Частота : 48,0 КГц Частота кадров : 31,250 кадров/сек (1536 SPF) Метод сжатия : С потерями Размер потока : 301 Мбайт (2%) Заголовок : ViruseProject Язык : Russian Service kind : Complete Main Default : Нет Forced : Нет Аудио #3 Идентификатор : 4 Формат : AC-3 Формат/Информация : Audio Coding 3 Коммерческое название : Dolby Digital Идентификатор кодека : A_AC3 Продолжительность : 1 ч. 49 м. Вид битрейта : Постоянный Битрейт : 640 Кбит/сек Каналы : 6 каналов Channel layout : L R C LFE Ls Rs Частота : 48,0 КГц Частота кадров : 31,250 кадров/сек (1536 SPF) Метод сжатия : С потерями Размер потока : 502 Мбайт (4%) Язык : English Service kind : Complete Main Default : Нет Forced : Нет Текст #1 Идентификатор : 5 Формат : UTF-8 Идентификатор кодека : S_TEXT/UTF8 Идентификатор кодека/Информация : UTF-8 Plain Text Язык : Russian Default : Нет Forced : Нет Текст #2 Идентификатор : 6 Формат : UTF-8 Идентификатор кодека : S_TEXT/UTF8 Идентификатор кодека/Информация : UTF-8 Plain Text Заголовок : SDH Язык : English Default : Нет Forced : Нет Меню 00:00:00.000 : en:Chapter 01 00:09:30.779 : en:Chapter 02 00:15:10.285 : en:Chapter 03 00:19:58.156 : en:Chapter 04 00:25:56.514 : en:Chapter 05 00:32:13.892 : en:Chapter 06 00:38:36.983 : en:Chapter 07 00:46:24.951 : en:Chapter 08 00:53:19.574 : en:Chapter 09 00:59:57.430 : en:Chapter 10 01:04:18.900 : en:Chapter 11 01:14:32.597 : en:Chapter 12 01:23:23.211 : en:Chapter 13 01:31:34.494 : en:Chapter 14 01:37:43.405 : en:Chapter 15 01:44:59.132 : en:Chapter 16

Всего файлов в раздаче: 1 
Эбигейл. 2024 (HEVC.SDR.WEB-DL 2160p).mkv12.51 GB

Похожие раздачи по запросу - Эбигейл
2024-05-14 magnet Эбигейл / Abigail (2024) UHD WEB-DL-HEVC 2160p | 4K | HDR | Dolby Vision Profile 8 | P, P2 20.21 GB ↑ 1 ↓ 8
2024-05-13 magnet Эбигейл / Abigail (2024) WEB-DLRip-AVC от DoMiNo & селезень | P, P2 | TVShows, Jaskier, ViruseProject 1.92 GB ↑ 2 ↓ 0
2024-05-12 magnet Эбигейл / Abigail (2024) WEB-DLRip-AVC от New-Team | P 2.23 GB ↑ 0 ↓ 1
2024-05-12 magnet Эбигейл / Abigail (2024) UHD WEB-DL-HEVC 2160p | 4K | HDR | Dolby Vision Profile 8 | P, P2 19.91 GB ↑ 0 ↓ 0
2024-05-12 magnet Эбигейл / Abigail (2024) WEB-DLRip от ExKinoRay | P2 744.62 MB ↑ 0 ↓ 0
2024-05-12 magnet Эбигейл / Abigail (2024) WEB-DL 1080p от New-Team | P, P2 6.39 GB ↑ 2 ↓ 1
2024-05-12 magnet Эбигейл / Abigail (2024) WEB-DLRip от New-Team | P | Jaskier 1.46 GB ↑ 0 ↓ 1

Комментарии


Зарегистрируйтесь чтобы добавить комментарий
Торрент клиент
byTorrent - программа для загрузки торрент-файлов.

Скачать byTorrent.exe (1,5 МБ)

Скачать byTorrent.zip (0,6 МБ)

Поддержи torrent.by
российских рублей
(300 российских рублей это 4$)

Обратная связь rss

End game ©