↑↓torrent.by
Поиск
Логин:  Регистрация
Пароль:

Министерство неджентльменских дел / The Ministry of Ungentlemanly Warfare (2024) WEB-DLRip 720p от DoMiNo & селезень | P2 | ViruseProject

download Скачать торрент-файл   magnet Магнитная ссылка Размер: 3.43 GB Добавлен: 2024-05-12 17:00
Пиры будут получены из сети DHT
Последний сидер был замечен 2024-05-18 06:18
Информация о фильме Название: Министерство неджентльменских дел Оригинальное название: The Ministry of Ungentlemanly Warfare Год выхода: 2024 Жанр: боевик, драма, военный, история Режиссер: Гай Ричи В ролях: Генри Кавилл, Эйса Гонсалес, Алан Ричсон, Генри Голдинг, Хиро Файннс-Тиффин, Кэри Элвис, Алекс Петтифер, Тиль Швайгер, Бабс Олусанмокун, Фредди Фокс, Генри Зага, Алессандро Бабалола, Рори Киннер, Джеймс Уилби, Саймон Пейсли Дэй, Пол Энтони-Барбер, Тим Сейфи, Рассел Балог, Мэтью Хоксли, Лука Маррокко, Бикия Грэм Дуглас, Джордж Эспри, Виктор Ошин, Марк Остервен, Дэнни Сапани, Пол О'Келли, Николас Салмон О фильме: 1942 год, Великобритания. Они — лучшие из лучших. Отпетые авантюристы и первоклассные спецы, привыкшие действовать в одиночку. Но когда на кону стоит судьба всего мира, им приходится объединиться в сверхсекретное боевое подразделение и отправиться на выполнение дерзкой миссии против нацистов. Теперь их дело — война, и вести они её будут совершенно не по-джентльменски. Страна: США, Великобритания, Турция / Black Bear, Jerry Bruckheimer Films, Lions Gate Films, Media Capital Technologies Продолжительность: 02:00:20 Перевод: Профессиональный (двухголосый, закадровый) | ViruseProject Субтитры: Русские (Full (ViruseProject)), Английские (Full, SDH) Файл Формат: Matroska Качество: WEB-DLRip 720p Видео: 1280x534 at 23.976 fps, x264@L4.1, ~2984 kbps Аудио 1: AC3, 6 ch, ~640 kbps - | Русский | Аудио 2: AC3, 6 ch, ~448 kbps - | Английский | Формат субтитров: softsub (SRT) ***Рип от: -=DoMiNo=-
[+] M/Ix264 : frame I:1785 Avg QP:14.59 size: 81727 x264 : frame P:35956 Avg QP:16.44 size: 32175 x264 : frame B:135384 Avg QP:18.70 size: 10272 General Unique ID : 242391363075153508775253033341093433380 (0xB65AE0E17DD4D035484AB36D22705024) Complete name : S:The.Ministry.of.Ungentlemanly.Warfare.2024.WEB-DLRip.720p.x264.seleZen.mkv Format : Matroska Format version : Version 4 File size : 3.43 GiB Duration : 2 h 0 min Overall bit rate : 4 074 kb/s Frame rate : 23.976 FPS Movie name : The.Ministry.of.Ungentlemanly.Warfare.2024.WEB-DLRip.720p.x264.seleZen Encoded date : 2024-05-12 08:36:58 UTC Writing application : mkvmerge v84.0 ('Sleeper') 64-bit Writing library : libebml v1.4.5 + libmatroska v1.7.1 Cover : Yes Attachments : cover.jpg / small_cover.jpg Video ID : 1 Format : AVC Format/Info : Advanced Video Codec Format profile : High@L4.1 Format settings : CABAC / 5 Ref Frames Format settings, CABAC : Yes Format settings, Reference : 5 frames Codec ID : V_MPEG4/ISO/AVC Duration : 2 h 0 min Bit rate : 2 984 kb/s Width : 1 280 pixels Height : 534 pixels Display aspect ratio : 2.40:1 Frame rate mode : Constant Frame rate : 23.976 (24000/1001) FPS Color space : YUV Chroma subsampling : 4:2:0 Bit depth : 8 bits Scan type : Progressive Bits/(Pixel*Frame) : 0.182 Stream size : 2.51 GiB (73%) Title : -=DoMiNo=- Writing library : x264 core 164 r3190 -DoMiNo Encoding settings : cabac=1 / ref=5 / deblock=1:-2:-1 / analyse=0x3:0x133 / me=umh / subme=10 / psy=1 / psy_rd=1.00:0.00 / mixed_ref=1 / me_range=32 / chroma_me=1 / trellis=2 / 8x8dct=1 / cqm=0 / deadzone=21,11 / fast_pskip=0 / chroma_qp_offset=-2 / threads=17 / lookahead_threads=4 / sliced_threads=0 / nr=0 / decimate=1 / interlaced=0 / bluray_compat=0 / constrained_intra=0 / bframes=12 / b_pyramid=2 / b_adapt=2 / b_bias=0 / direct=3 / weightb=1 / open_gop=0 / weightp=2 / keyint=240 / keyint_min=23 / scenecut=40 / intra_refresh=0 / rc_lookahead=60 / rc=crf / mbtree=0 / crf=18.0 / qcomp=0.60 / qpmin=0 / qpmax=69 / qpstep=4 / vbv_maxrate=50000 / vbv_bufsize=62500 / crf_max=0.0 / nal_hrd=none / filler=0 / ip_ratio=1.35 / pb_ratio=1.25 / aq=3:0.90 Language : English Default : Yes Forced : No Color range : Limited Color primaries : BT.709 Transfer characteristics : BT.709 Matrix coefficients : BT.709 Audio #1 ID : 2 Format : AC-3 Format/Info : Audio Coding 3 Commercial name : Dolby Digital Codec ID : A_AC3 Duration : 2 h 0 min Bit rate mode : Constant Bit rate : 640 kb/s Channel(s) : 6 channels Channel layout : L R C LFE Ls Rs Sampling rate : 48.0 kHz Frame rate : 31.250 FPS (1536 SPF) Compression mode : Lossy Stream size : 551 MiB (16%) Title : DVO -ViruseProject Language : Russian Service kind : Complete Main Default : Yes Forced : No Dialog Normalization : -31 dB cmixlev : -4.5 dB surmixlev : -6 dB dialnorm_Average : -31 dB dialnorm_Minimum : -31 dB dialnorm_Maximum : -31 dB Audio #2 ID : 3 Format : AC-3 Format/Info : Audio Coding 3 Commercial name : Dolby Digital Codec ID : A_AC3 Duration : 2 h 0 min Bit rate mode : Constant Bit rate : 448 kb/s Channel(s) : 6 channels Channel layout : L R C LFE Ls Rs Sampling rate : 48.0 kHz Frame rate : 31.250 FPS (1536 SPF) Compression mode : Lossy Stream size : 386 MiB (11%) Language : English Service kind : Complete Main Default : No Forced : No Dialog Normalization : -31 dB cmixlev : -4.5 dB surmixlev : -6 dB dialnorm_Average : -31 dB dialnorm_Minimum : -31 dB dialnorm_Maximum : -31 dB Text #1 ID : 4 Format : UTF-8 Codec ID : S_TEXT/UTF8 Codec ID/Info : UTF-8 Plain Text Duration : 1 h 49 min Bit rate : 86 b/s Frame rate : 0.226 FPS Count of elements : 1486 Stream size : 69.3 KiB (0%) Title : ViruseProject Language : Russian Default : No Forced : No Text #2 ID : 5 Format : UTF-8 Codec ID : S_TEXT/UTF8 Codec ID/Info : UTF-8 Plain Text Duration : 1 h 47 min Bit rate : 54 b/s Frame rate : 0.232 FPS Count of elements : 1488 Stream size : 43.0 KiB (0%) Language : English Default : No Forced : No Text #3 ID : 6 Format : UTF-8 Codec ID : S_TEXT/UTF8 Codec ID/Info : UTF-8 Plain Text Duration : 1 h 59 min Bit rate : 66 b/s Frame rate : 0.285 FPS Count of elements : 2036 Stream size : 57.8 KiB (0%) Title : SDH Language : English Default : No Forced : No Menu 00:00:00.000 : en:Chapter 01 00:07:21.358 : en:Chapter 02 00:17:44.439 : en:Chapter 03 00:30:04.721 : en:Chapter 04 00:41:41.376 : en:Chapter 05 00:52:45.331 : en:Chapter 06 01:03:25.638 : en:Chapter 07 01:13:00.380 : en:Chapter 08 01:23:44.899 : en:Chapter 09 01:35:07.624 : en:Chapter 10 01:44:36.026 : en:Chapter 11 01:50:28.878 : en:Chapter 12
Релиз: Присоединяйся к: Кликай на баннеры.

Всего файлов в раздаче: 1 
The.Ministry.of.Ungentlemanly.Warfare.2024.WEB-DLRip.720p.x264.seleZen.mkv3.43 GB

Похожие раздачи по запросу - Министерство
2024-05-15 magnet Министерство неджентльменских дел / The Ministry of Ungentlemanly Warfare (2024) WEB-DLRip-AVC от ExKinoRay | D, P2 1.07 GB ↑ 1 ↓ 0
2024-05-14 magnet Министерство неджентльменских дел / The Ministry of Ungentlemanly Warfare (2024) UHD WEB-DL-HEVC 2160p | 4K | SDR | D, P2 15.32 GB ↑ 1 ↓ 6
2024-05-14 magnet Министерство неджентльменских дел / The Ministry of Ungentlemanly Warfare (2024) WEB-DL 1080p от Scarabey | D, P2 | Мосфильм-Мастер, Кубик в Кубе, ViruseProject 7.75 GB ↑ 1 ↓ 3
2024-05-14 magnet Министерство неджентльменских дел / The Ministry of Ungentlemanly Warfare (2024) UHD WEB-DL 2160p от Scarabey | 4K | HDR | D, P2 | Мосфильм-мастер, Кубик в кубе 13.99 GB ↑ 0 ↓ 7
2024-05-13 magnet Министерство неджентльменских дел / The Ministry of Ungentlemanly Warfare (2024) WEB-DL-HEVC 2160p | 4K | HDR | D, P2 | Локализованная версия 9.35 GB ↑ 0 ↓ 1
2024-05-13 magnet Министерство неджентльменских дел / The Ministry of Ungentlemanly Warfare (2024) WEB-DLRip-AVC от DoMiNo & селезень | D, P2 | Мосфильм-Мастер, Кубик в Кубе, ViruseProject | Локализованная версия 2.50 GB ↑ 0 ↓ 1
2024-05-13 magnet Министерство неджентльменских дел / The Ministry of Ungentlemanly Warfare (2024) WEB-DLRip 720p от DoMiNo & селезень | D | Мосфильм-Мастер 3.26 GB ↑ 1 ↓ 2

Комментарии


Зарегистрируйтесь чтобы добавить комментарий
Торрент клиент
byTorrent - программа для загрузки торрент-файлов.

Скачать byTorrent.exe (1,5 МБ)

Скачать byTorrent.zip (0,6 МБ)

Поддержи torrent.by
российских рублей
(300 российских рублей это 4$)

Обратная связь rss

End game ©