↑↓torrent.by
Поиск
Логин:  Регистрация
Пароль:

На краю / The Ledge (2022) BDRip 1080p от DoMiNo & селезень | D

download Скачать торрент-файл   magnet Магнитная ссылка Размер: 4.61 GB Добавлен: 2024-05-13 05:00
Пиры будут получены из сети DHT
Последний сидер был замечен 2024-05-20 21:09
Информация о фильме Название: На краю Оригинальное название: The Ledge Год выхода: 2022 Жанр: Триллер Режиссер: Ховард Дж. Форд В ролях: Бриттани Эшворт, Бен Лэмб, Луис Бойер, Нэйтан Уэлш, Анаис Порелло, Дэвид Уэйман, Крсто Никчевич О фильме: Альпинистка Келли становится свидетелем убийства подруги. Она успевает снять происходящее на камеру, но ее замечают. Девушка отправляется к неприступной скале, надеясь там скрыться от убийц. Но она не подозревает, с какими трудностями ей придется столкнуться во время подъема на вершину и что ее убежище может стать настоящей ловушкой. Страна: Великобритания Студия: Evolution Pictures, Head Gear Films, Kreo Films FZ, Metrol Technology, Red Production, Red Production, Trigger Films Продолжительность: 01:26:20 Перевод: Профессиональный (полное дублирование) | Paragraph Media Субтитры: Русские (Full), английские (SDH) Файл Формат: Matroska Качество: BDRip 1080p Видео: 1920x804 at 23.976 fps, x264@L4.1, ~6553 kbps Аудио 1: AC3, 6 ch, ~448 kbps - | Русский | Аудио 2: AC3, 6 ch, ~640 kbps - | Английский | Формат субтитров: softsub (SRT) ***Рип от: -=DoMiNo=-
[+] M/Ix264 : frame I:861 Avg QP:15.84 size:181233 x264 : frame P:27532 Avg QP:16.34 size: 67438 x264 : frame B:95814 Avg QP:18.50 size: 23284 x264 : consecutive B-frames: 2.8% 5.9% 8.3% 7.3% 8.0% 59.9% 3.0% 0.8% 0.9% 0.6% 0.5% 0.6% 0.4% General Unique ID : 35875133451257304740691504349593392443 (0x1AFD4CA3FD10A192988D5CBFA236D53B) Complete name : H:The.Ledge.2022.BDRip.1080p.x264.seleZen.mkv Format : Matroska Format version : Version 4 File size : 4.61 GiB Duration : 1 h 26 min Overall bit rate : 7 644 kb/s Movie name : The.Ledge.2022.BDRip.1080p.x264.seleZen Encoded date : UTC 2023-02-20 20:27:28 Writing application : mkvmerge v74.0.0 ('You Oughta Know') 64-bit Writing library : libebml v1.4.4 + libmatroska v1.7.1 Cover : Yes Attachments : cover.jpg / small_cover.jpg Video ID : 1 Format : AVC Format/Info : Advanced Video Codec Format profile : High@L4.1 Format settings : CABAC / 5 Ref Frames Format settings, CABAC : Yes Format settings, Reference : 5 frames Codec ID : V_MPEG4/ISO/AVC Duration : 1 h 26 min Bit rate : 6 553 kb/s Width : 1 920 pixels Height : 804 pixels Display aspect ratio : 2.40:1 Frame rate mode : Constant Frame rate : 23.976 (24000/1001) FPS Color space : YUV Chroma subsampling : 4:2:0 Bit depth : 8 bits Scan type : Progressive Bits/(Pixel*Frame) : 0.177 Stream size : 3.95 GiB (86%) Title : -=DoMiNo=- Writing library : x264 core 164 r3106+55M 24adf88 t_mod_New | by -=DoMiNo=- | X86_64] Encoding settings : cabac=1 / ref=5 / deblock=1:-3:-3 / analyse=0x3:0x133 / me=umh / subme=10 / psy=1 / fade_compensate=0.00 / psy_rd=1.03:0.05 / mixed_ref=1 / me_range=32 / chroma_me=1 / trellis=2 / 8x8dct=1 / cqm=0 / deadzone=21,11 / fast_pskip=0 / chroma_qp_offset=-3 / threads=24 / lookahead_threads=6 / sliced_threads=0 / nr=0 / decimate=1 / interlaced=0 / bluray_compat=0 / constrained_intra=0 / fgo=0 / bframes=12 / b_pyramid=2 / b_adapt=2 / b_bias=0 / direct=3 / weightb=1 / open_gop=0 / weightp=2 / keyint=240 / keyint_min=23 / scenecut=40 / intra_refresh=0 / rc_lookahead=60 / rc=crf / mbtree=0 / crf=19.3000 / qcomp=0.65 / qpmin=0:0:0 / qpmax=69:69:69 / qpstep=4 / vbv_maxrate=50000 / vbv_bufsize=62500 / crf_max=0.0 / nal_hrd=none / filler=0 / ip_ratio=1.35 / pb_ratio=1.25 / aq=3:0.80 / aq-sensitivity=10.00 / aq-factor=1.00:1.00:1.00 / aq2=0 / aq3=0 Language : English Default : Yes Forced : No Color range : Limited Matrix coefficients : BT.709 Audio #1 ID : 2 Format : AC-3 Format/Info : Audio Coding 3 Commercial name : Dolby Digital Codec ID : A_AC3 Duration : 1 h 26 min Bit rate mode : Constant Bit rate : 448 kb/s Channel(s) : 6 channels Channel layout : L R C LFE Ls Rs Sampling rate : 48.0 kHz Frame rate : 31.250 FPS (1536 SPF) Compression mode : Lossy Stream size : 277 MiB (6%) Title : Dub Language : Russian Service kind : Complete Main Default : Yes Forced : Yes Audio #2 ID : 3 Format : AC-3 Format/Info : Audio Coding 3 Commercial name : Dolby Digital Codec ID : A_AC3 Duration : 1 h 26 min Bit rate mode : Constant Bit rate : 640 kb/s Channel(s) : 6 channels Channel layout : L R C LFE Ls Rs Sampling rate : 48.0 kHz Frame rate : 31.250 FPS (1536 SPF) Compression mode : Lossy Stream size : 395 MiB (8%) Title : Original Language : English Service kind : Complete Main Default : No Forced : No Text #1 ID : 4 Format : UTF-8 Codec ID : S_TEXT/UTF8 Codec ID/Info : UTF-8 Plain Text Duration : 1 h 21 min Bit rate : 54 b/s Frame rate : 0.146 FPS Count of elements : 715 Stream size : 32.2 KiB (0%) Title : Full Language : Russian Default : No Forced : No Text #2 ID : 5 Format : UTF-8 Codec ID : S_TEXT/UTF8 Codec ID/Info : UTF-8 Plain Text Duration : 1 h 17 min Bit rate : 38 b/s Frame rate : 0.176 FPS Count of elements : 823 Stream size : 22.1 KiB (0%) Title : SDH Language : English Default : No Forced : No Menu 00:00:00.000 : en:Chapter 01 00:13:43.156 : en:Chapter 02 00:29:01.114 : en:Chapter 03 00:46:47.179 : en:Chapter 04 00:57:07.507 : en:Chapter 05 01:12:26.259 : en:Chapter 06
Релиз: Присоединяйся к: Кликай на баннеры.

Всего файлов в раздаче: 1 
The.Ledge.2022.BDRip.1080p.x264.seleZen.mkv4.61 GB

Похожие раздачи по запросу - краю
2024-05-13 magnet На краю / The Ledge (2022) BDRip-AVC от DoMiNo & селезень | D 1.46 GB ↑ 0 ↓ 0
2024-02-10 magnet Хозяин морей: На краю Земли / Master and Commander: The Far Side of the World (2003) WEBRip-AVC | D | Open Matte 2.18 GB ↑ 1 ↓ 0
2023-09-05 magnet Хозяин морей: На краю Земли / Master and Commander: The Far Side of the World (2003) BDRip 1080p | D 11.55 GB ↑ 0 ↓ 0

Комментарии


Зарегистрируйтесь чтобы добавить комментарий
Торрент клиент
byTorrent - программа для загрузки торрент-файлов.

Скачать byTorrent.exe (1,5 МБ)

Скачать byTorrent.zip (0,6 МБ)

Поддержи torrent.by
российских рублей
(300 российских рублей это 4$)

Обратная связь rss

End game ©