↑↓torrent.by
Поиск
Логин:  Регистрация
Пароль:

Слабый герой / Yakhan yeongung / Weak Hero Class 1 [S01] (2022) WEB-DLRip 1080p | D

download Скачать торрент-файл   magnet Магнитная ссылка Размер: 19.84 GB Добавлен: 2024-05-13 05:00
Пиры будут получены из сети DHT
Последний сидер был замечен 2024-05-13 05:00
Информация о фильме Название: Слабый герой Оригинальное название: Yakhan yeongung / Weak Hero Class 1 Год выхода: 2022 Жанр: драма, криминал Режиссер: Ю Су-мин, Пак Тан-хи В ролях: Пак Чи-хун, Чхве Хён-ук, Хон Гён, Ким Су-гём, Ли Ён, Щин Сын-хо, Юн Джон-хун, Чха У-мин, На Чхоль, Чо Хан-чхоль О фильме: Ён Щи-ын — лучший ученик в школе, где процветает буллинг и угнетение слабых. Хотя парень невысокого роста и выглядит слабым, он использует интеллект, чтобы бороться с насилием внутри и за пределами учебного заведения. Страна: Корея Южная Студия: Playlist, Shotcake, Wavve Продолжительность: 40 мин. Перевод: Профессиональный (дублированный) DEEP Русская аудиодорожка подогнана без пересжатия звука. Рип сделан с WEB-DL от Amazon (Kocowa) с интерлейсом в прогрессиве в 29.970. Убран интерлейс и кадры дубли, теперь видеоряд в чистых 23.976 без проблем в динамике. Файл Качество: WEB-DLRip 1080p Видео: 1920x1080 at 23.976 fps, MPEG-4 AVC, ~7518-8872 kbps avg Аудио 1: 48 kHz, AAC, 2/0 (L,R) ch, ~256 kbps avg | Russian - в 1 серии Аудио 2: 48 kHz, E-AC3, 2/0 (L,R) ch, ~256 kbps avg | Russian - во 2-8 сериях Аудио 3: 48 kHz, E-AC3, 2/0 (L,R) ch, ~224 kbps avg | Korean Субтитры: Русские, английские Семпл
[+] Скриншоты
[+] MediaInfo General Unique ID : 276209387933600169686018293646563153938 (0xCFCBFE3CBBC43D4378486F77A6A31812) Complete name : Weak.Hero.Class.1.2022.S01E01.WEB-DLRip.1080p-AsiaOne-Kyle.mkv Format : Matroska Format version : Version 4 File size : 2.76 GiB Duration : 44 min 7 s Overall bit rate : 8 944 kb/s Frame rate : 23.976 FPS Encoded date : 2024-05-03 15:14:22 UTC Writing application : mkvmerge v84.0 ('Sleeper') 64-bit Writing library : libebml v1.4.5 + libmatroska v1.7.1 Cover : Yes Attachments : cover.jpg Video ID : 1 Format : AVC Format/Info : Advanced Video Codec Format profile : High@L4.1 Format settings : CABAC / 4 Ref Frames Format settings, CABAC : Yes Format settings, Reference : 4 frames Codec ID : V_MPEG4/ISO/AVC Duration : 44 min 7 s Bit rate : 8 461 kb/s Width : 1 920 pixels Height : 1 080 pixels Display aspect ratio : 16:9 Frame rate mode : Constant Frame rate : 23.976 (24000/1001) FPS Color space : YUV Chroma subsampling : 4:2:0 Bit depth : 8 bits Scan type : Progressive Bits/(Pixel*Frame) : 0.170 Stream size : 2.61 GiB (95%) Writing library : x264 core 164 r3179+50 a40a721 tMod@devel Encoding settings : cabac=1 / ref=4 / deblock=1:-3:-3 / analyse=0x3:0x133 / me=umh / subme=11 / psy=1 / fade_compensate=0.00 / psy_rd=1.00:0.00 / mixed_ref=1 / me_range=32 / chroma_me=1 / trellis=2 / 8x8dct=1 / cqm=0 / deadzone=21,11 / fast_pskip=0 / chroma_qp_offset=-2 / threads=34 / lookahead_threads=5 / sliced_threads=0 / nr=0 / decimate=0 / interlaced=0 / bluray_compat=0 / constrained_intra=0 / fgo=0 / bframes=9 / b_pyramid=2 / b_adapt=2 / b_bias=0 / direct=3 / weightb=1 / open_gop=0 / weightp=2 / keyint=250 / keyint_min=23 / scenecut=40 / intra_refresh=0 / rc=crf / mbtree=0 / crf=17.4500 / qcomp=0.60 / qpmin=0:0:0 / qpmax=69:69:69 / qpstep=4 / ip_ratio=1.30 / pb_ratio=1.20 / aq=3:0.75 / aq-sensitivity=10.00 / aq-factor=1.00:1.00:1.00:1.00 / aq2=0 / aq3=0 Default : Yes Forced : No Color range : Limited Color primaries : BT.709 Transfer characteristics : BT.709 Matrix coefficients : BT.709 Audio #1 ID : 2 Format : AAC LC Format/Info : Advanced Audio Codec Low Complexity Codec ID : A_AAC-2 Duration : 44 min 7 s Bit rate : 256 kb/s Channel(s) : 2 channels Channel layout : L R Sampling rate : 48.0 kHz Frame rate : 46.875 FPS (1024 SPF) Compression mode : Lossy Stream size : 80.8 MiB (3%) Title : Russian Language : Russian Default : Yes Forced : No Audio #2 ID : 3 Format : E-AC-3 Format/Info : Enhanced AC-3 Commercial name : Dolby Digital Plus Codec ID : A_EAC3 Duration : 44 min 7 s Bit rate mode : Constant Bit rate : 224 kb/s Channel(s) : 2 channels Channel layout : L R Sampling rate : 48.0 kHz Frame rate : 31.250 FPS (1536 SPF) Compression mode : Lossy Stream size : 70.7 MiB (3%) Title : Korean Language : Korean Service kind : Complete Main Default : No Forced : No Text #1 ID : 4 Format : UTF-8 Codec ID : S_TEXT/UTF8 Codec ID/Info : UTF-8 Plain Text Duration : 41 min 9 s Bit rate : 60 b/s Frame rate : 0.194 FPS Count of elements : 478 Stream size : 18.3 KiB (0%) Title : Russian Language : Russian Default : No Forced : No Text #2 ID : 5 Format : UTF-8 Codec ID : S_TEXT/UTF8 Codec ID/Info : UTF-8 Plain Text Duration : 43 min 59 s Bit rate : 39 b/s Frame rate : 0.177 FPS Count of elements : 466 Stream size : 12.7 KiB (0%) Title : English Language : English Default : No Forced : No
Релиз от: by Kyle

Всего файлов в раздаче: 8 
Weak.Hero.Class.1.2022.S01E01.WEB-DLRip.1080p-AsiaOne-Kyle.mkv2.76 GB
Weak.Hero.Class.1.2022.S01E02.WEB-DLRip.1080p-AsiaOne-Kyle.mkv2.74 GB
Weak.Hero.Class.1.2022.S01E03.WEB-DLRip.1080p-AsiaOne-Kyle.mkv2.44 GB
Weak.Hero.Class.1.2022.S01E04.WEB-DLRip.1080p-AsiaOne-Kyle.mkv2.42 GB
Weak.Hero.Class.1.2022.S01E05.WEB-DLRip.1080p-AsiaOne-Kyle.mkv2.52 GB
Weak.Hero.Class.1.2022.S01E06.WEB-DLRip.1080p-AsiaOne-Kyle.mkv2.41 GB
Weak.Hero.Class.1.2022.S01E07.WEB-DLRip.1080p-AsiaOne-Kyle.mkv2.04 GB
Weak.Hero.Class.1.2022.S01E08.WEB-DLRip.1080p-AsiaOne-Kyle.mkv2.51 GB

Похожие раздачи по запросу - Слабый
2024-05-05 magnet Слабый герой / Yakhan yeongung / Weak Hero Class 1 [01x01-02 из 8] (2022) WEB-DLRip 1080p | D 5.50 GB ↑ 0 ↓ 0

Комментарии


Зарегистрируйтесь чтобы добавить комментарий
Торрент клиент
byTorrent - программа для загрузки торрент-файлов.

Скачать byTorrent.exe (1,5 МБ)

Скачать byTorrent.zip (0,6 МБ)

Поддержи torrent.by
российских рублей
(300 российских рублей это 4$)

Обратная связь rss

End game ©