↑↓torrent.by
Поиск
Логин:  Регистрация
Пароль:

Новая жизнь / New Life (2023) WEB-DL 720p от селезень | P | TVShows

download Скачать торрент-файл   magnet Магнитная ссылка Размер: 2.33 GB Раздают: 0 Качают: 1 Добавлен: 2024-05-13 05:00
Пиры будут получены из сети DHT
Последний сидер был замечен 2024-05-13 05:00
Информация о фильме Название: Новая жизнь Оригинальное название: New Life Год выпуска: 2023 Жанр: ужасы, триллер Режиссер: Джон Росман / John Rosman В ролях: Соня Уолгер, Хейли Эрин, Тони Амендола, Ник Джордж, Айанна Беркшир, Блейн Палмер, Джеб Беррье, Синди Роудс, Дэвид Лофтус О фильме: Джесс думает, что виновна в убийстве и уверена, что ее единственный шанс на спасение – отправиться на Север. Но она даже не догадывается, что несет в себе нечто ужасающее, грозящее перерасти в пандемию апокалиптических масштабов и подвергает смертельной опасности добрых самаритян, желающих помочь ей. Выпущено: США / American Storyworks, Great Lakes Vacuum Supplies Unlimited Продолжительность: 01:23:57 Перевод: Профессиональный (многоголосый, закадровый) | TVShows Субтитры: Английские (Full, SDH) Файл Формат: Matroska Качество: WEB-DL 720p | AMZN Видео: 1248x520 at 24.000 fps, MPEG-4 AVC, ~2875 kbps Аудио 1: AC3, 6 ch, ~448 kbps - | Русский | Аудио 2: E-AC3, 6 ch, ~640 kbps - | Английский | Формат субтитров: softsub (SRT)
[+] M/IGeneral Unique ID : 158337391123148597312327417525289671279 (0x771EAC1B115E622336449D5BA120DA6F) Complete name : S:New.Life.2024.AMZN.WEB-DL.720p.x264.seleZen.mkv Format : Matroska Format version : Version 4 File size : 2.33 GiB Duration : 1 h 23 min Overall bit rate : 3 966 kb/s Frame rate : 24.000 FPS Movie name : New.Life.2024.AMZN.WEB-DL.720p.x264.seleZen Encoded date : 2024-05-12 17:33:40 UTC Writing application : mkvmerge v84.0 ('Sleeper') 64-bit Writing library : libebml v1.4.5 + libmatroska v1.7.1 Cover : Yes Attachments : cover.jpg / small_cover.jpg Video ID : 1 Format : AVC Format/Info : Advanced Video Codec Format profile : High@L3.1 Format settings : CABAC / 4 Ref Frames Format settings, CABAC : Yes Format settings, Reference : 4 frames Codec ID : V_MPEG4/ISO/AVC Duration : 1 h 23 min Bit rate mode : Constant Bit rate : 2 875 kb/s Nominal bit rate : 6 000 kb/s Width : 1 248 pixels Height : 520 pixels Display aspect ratio : 2.40:1 Frame rate mode : Constant Frame rate : 24.000 FPS Color space : YUV Chroma subsampling : 4:2:0 Bit depth : 8 bits Scan type : Progressive Bits/(Pixel*Frame) : 0.185 Stream size : 1.69 GiB (73%) Title : -=DoMiNo=- Language : English Default : Yes Forced : No Color range : Limited Color primaries : BT.709 Transfer characteristics : BT.709 Matrix coefficients : BT.709 Audio #1 ID : 2 Format : AC-3 Format/Info : Audio Coding 3 Commercial name : Dolby Digital Codec ID : A_AC3 Duration : 1 h 23 min Bit rate mode : Constant Bit rate : 448 kb/s Channel(s) : 6 channels Channel layout : L R C LFE Ls Rs Sampling rate : 48.0 kHz Frame rate : 31.250 FPS (1536 SPF) Compression mode : Lossy Stream size : 269 MiB (11%) Title : MVO -TVShows Language : Russian Service kind : Complete Main Default : Yes Forced : No Dialog Normalization : -31 dB cmixlev : -4.5 dB surmixlev : -6 dB dialnorm_Average : -31 dB dialnorm_Minimum : -31 dB dialnorm_Maximum : -31 dB Audio #2 ID : 3 Format : E-AC-3 Format/Info : Enhanced AC-3 Commercial name : Dolby Digital Plus Codec ID : A_EAC3 Duration : 1 h 23 min Bit rate mode : Constant Bit rate : 640 kb/s Channel(s) : 6 channels Channel layout : L R C LFE Ls Rs Sampling rate : 48.0 kHz Frame rate : 31.250 FPS (1536 SPF) Compression mode : Lossy Stream size : 384 MiB (16%) Language : English Service kind : Complete Main Default : No Forced : No Dialog Normalization : -31 dB compr : -0.28 dB dialnorm_Average : -31 dB dialnorm_Minimum : -31 dB dialnorm_Maximum : -31 dB Text #1 ID : 4 Format : UTF-8 Codec ID : S_TEXT/UTF8 Codec ID/Info : UTF-8 Plain Text Duration : 1 h 18 min Bit rate : 39 b/s Frame rate : 0.166 FPS Count of elements : 780 Stream size : 22.7 KiB (0%) Language : English Default : No Forced : No Text #2 ID : 5 Format : UTF-8 Codec ID : S_TEXT/UTF8 Codec ID/Info : UTF-8 Plain Text Duration : 1 h 23 min Bit rate : 42 b/s Frame rate : 0.190 FPS Count of elements : 954 Stream size : 26.3 KiB (0%) Title : SDH Language : English Default : No Forced : No Menu 00:00:00.000 : en:Scene 01 01:23:52.000 : en:End Credits
Релиз: Присоединяйся к: Кликай на баннеры.

Всего файлов в раздаче: 1 
New.Life.2024.AMZN.WEB-DL.720p.x264.seleZen.mkv2.33 GB

Похожие раздачи по запросу - Новая
2024-05-16 magnet Годзилла и Конг: Новая империя / Ґодзілла та Конґ: Нова імперія / Godzilla x Kong: The New Empire (2024) WEB-DL-HEVC 2160p | 4K | HDR | D | UKR 16.69 GB ↑ 0 ↓ 6
2024-05-16 magnet Годзилла и Конг: Новая империя / Godzilla x Kong: The New Empire (2024) WEB-DL 1080p от Jaskier | P 8.11 GB ↑ 0 ↓ 5
2024-05-16 magnet Годзилла и Конг: Новая империя / Ґодзілла та Конґ: Нова імперія / Godzilla x Kong: The New Empire (2024) WEB-DL 1080p | D | UKR 8.47 GB ↑ 0 ↓ 2
2024-05-15 magnet Годзилла и Конг: Новая империя / Godzilla x Kong: The New Empire [2024, фантастика, боевик, WEB-DLRip-AVC] Dub (Bravo Records Georgia) 1.46 GB ↑ 6 ↓ 4
2024-05-15 magnet Годзилла и Конг: Новая империя / Godzilla x Kong: The New Empire (2024) WEB-DL 1080p от Scarabey | D | Bravo Records 8.11 GB ↑ 0 ↓ 4
2024-05-14 magnet Годзилла и Конг: Новая империя / Godzilla x Kong: The New Empire (2024) UHD WEB-DL-HEVC 2160p | 4K | SDR | D 13.06 GB ↑ 0 ↓ 8
2024-05-14 magnet Годзилла и Конг: Новая империя / Godzilla x Kong: The New Empire (2024) WEB-DLRip-AVC от ExKinoRay | D 744.37 MB ↑ 0 ↓ 0

Комментарии


Зарегистрируйтесь чтобы добавить комментарий
Торрент клиент
byTorrent - программа для загрузки торрент-файлов.

Скачать byTorrent.exe (1,5 МБ)

Скачать byTorrent.zip (0,6 МБ)

Поддержи torrent.by
российских рублей
(300 российских рублей это 4$)

Обратная связь rss

End game ©