↑↓torrent.by
Поиск
Логин:  Регистрация
Пароль:

Убежище / Refuge (2023) WEB-DLRip 720p от DoMiNo & селезень | P2 | ViruseProject

download Скачать торрент-файл   magnet Магнитная ссылка Размер: 2.13 GB Раздают: 0 Качают: 1 Добавлен: 2024-05-13 05:00
Пиры будут получены из сети DHT
Последний сидер был замечен 2024-05-17 08:28
Информация о фильме Название: Убежище Оригинальное название: Refuge Год выхода: 2023 Жанр: ужасы Режиссер: Ренни Харлин В ролях: Джейсон Флеминг, Раза Джеффри, Софи Симнетт, Джоанна Харлин, Шервин Аленаби, Атанас Сребрев, Юэн МакНотон, Эстон Маколи и др. О фильме: Капрал Рик Педрони возвращается из Афганистана - но не домой, а в госпиталь для ветеранов. Он смотрит в одну точку и не говорит. Врачи объясняют его поведение посттравматическим стрессовым расстройством и прописывают ему травматологическую терапию, но жена Рика обнаруживает, что ее муж одержим злым духом. Теперь Кейт предстоит найти того, кто поможет спасти Рика от злых сил. Страна: Болгария, США / B2Y Productions, Revelations Entertainment, Voltage Pictures Продолжительность: 01:31:25 Перевод: Профессиональный (двухголосый, закадровый) | ViruseProject Субтитры: Русские (Full (ViruseProject)), английские Файл Формат: Matroska Качество: WEB-DLRip 720p Видео: 1280x534 at 23.976 fps, x264@L4.1, ~2497 kbps Аудио 1: AC3, 2 ch, ~384 kbps - | Русский | Аудио 2: AC3, 6 ch, ~448 kbps - | Английский | Формат субтитров: softsub (SRT) ***Рип от: -=DoMiNo=-
[+] M/Ix264 : frame I:959 Avg QP:15.02 size: 68400 x264 : frame P:29495 Avg QP:16.38 size: 26067 x264 : frame B:101073 Avg QP:18.69 size: 8683 General Unique ID : 106382862425237054212053400226141783932 (0x5008981271C40ECC128719274FAB477C) Complete name : R:Refuge.2023.DVO.WEB-DLRip.720p.x264.seleZen.mkv Format : Matroska Format version : Version 4 File size : 2.13 GiB Duration : 1 h 31 min Overall bit rate : 3 332 kb/s Frame rate : 23.976 FPS Movie name : Refuge.2023.DVO.WEB-DLRip.720p.x264.seleZen Encoded date : 2024-05-12 15:55:03 UTC Writing application : mkvmerge v84.0 ('Sleeper') 64-bit Writing library : libebml v1.4.5 + libmatroska v1.7.1 Cover : Yes Attachments : cover.jpg / small_cover.jpg Video ID : 1 Format : AVC Format/Info : Advanced Video Codec Format profile : High@L4.1 Format settings : CABAC / 5 Ref Frames Format settings, CABAC : Yes Format settings, Reference : 5 frames Codec ID : V_MPEG4/ISO/AVC Duration : 1 h 31 min Bit rate : 2 497 kb/s Width : 1 280 pixels Height : 534 pixels Display aspect ratio : 2.40:1 Frame rate mode : Constant Frame rate : 23.976 (24000/1001) FPS Color space : YUV Chroma subsampling : 4:2:0 Bit depth : 8 bits Scan type : Progressive Bits/(Pixel*Frame) : 0.152 Stream size : 1.59 GiB (75%) Title : -=DoMiNo=- Writing library : x264 core 164 r3190 -DoMiNo Encoding settings : cabac=1 / ref=5 / deblock=1:-2:-1 / analyse=0x3:0x133 / me=umh / subme=10 / psy=1 / psy_rd=1.00:0.00 / mixed_ref=1 / me_range=32 / chroma_me=1 / trellis=2 / 8x8dct=1 / cqm=0 / deadzone=21,11 / fast_pskip=0 / chroma_qp_offset=-2 / threads=17 / lookahead_threads=4 / sliced_threads=0 / nr=0 / decimate=1 / interlaced=0 / bluray_compat=0 / constrained_intra=0 / bframes=12 / b_pyramid=2 / b_adapt=2 / b_bias=0 / direct=3 / weightb=1 / open_gop=0 / weightp=2 / keyint=240 / keyint_min=23 / scenecut=40 / intra_refresh=0 / rc_lookahead=60 / rc=crf / mbtree=0 / crf=19.0 / qcomp=0.60 / qpmin=0 / qpmax=69 / qpstep=4 / vbv_maxrate=50000 / vbv_bufsize=62500 / crf_max=0.0 / nal_hrd=none / filler=0 / ip_ratio=1.35 / pb_ratio=1.25 / aq=3:0.90 Language : English Default : Yes Forced : No Color range : Limited Color primaries : BT.709 Transfer characteristics : BT.709 Matrix coefficients : BT.709 Audio #1 ID : 2 Format : AC-3 Format/Info : Audio Coding 3 Commercial name : Dolby Digital Codec ID : A_AC3 Duration : 1 h 31 min Bit rate mode : Constant Bit rate : 384 kb/s Channel(s) : 2 channels Channel layout : L R Sampling rate : 48.0 kHz Frame rate : 31.250 FPS (1536 SPF) Compression mode : Lossy Stream size : 251 MiB (12%) Title : DVO -ViruseProject Language : Russian Service kind : Complete Main Default : Yes Forced : No Dialog Normalization : -31 dB dialnorm_Average : -31 dB dialnorm_Minimum : -31 dB dialnorm_Maximum : -31 dB Audio #2 ID : 3 Format : AC-3 Format/Info : Audio Coding 3 Commercial name : Dolby Digital Codec ID : A_AC3 Duration : 1 h 31 min Bit rate mode : Constant Bit rate : 448 kb/s Channel(s) : 6 channels Channel layout : L R C LFE Ls Rs Sampling rate : 48.0 kHz Frame rate : 31.250 FPS (1536 SPF) Compression mode : Lossy Stream size : 293 MiB (13%) Language : English Service kind : Complete Main Default : No Forced : No Dialog Normalization : -31 dB cmixlev : -4.5 dB surmixlev : -6 dB dialnorm_Average : -31 dB dialnorm_Minimum : -31 dB dialnorm_Maximum : -31 dB Text #1 ID : 4 Format : UTF-8 Codec ID : S_TEXT/UTF8 Codec ID/Info : UTF-8 Plain Text Duration : 1 h 24 min Bit rate : 72 b/s Frame rate : 0.225 FPS Count of elements : 1137 Stream size : 44.7 KiB (0%) Title : ViruseProject Language : Russian Default : No Forced : No Text #2 ID : 5 Format : UTF-8 Codec ID : S_TEXT/UTF8 Codec ID/Info : UTF-8 Plain Text Duration : 1 h 30 min Bit rate : 50 b/s Frame rate : 0.251 FPS Count of elements : 1359 Stream size : 33.4 KiB (0%) Language : English Default : No Forced : No Menu 00:00:00.000 : en:Chapter 01 00:05:50.000 : en:Chapter 02 00:11:40.000 : en:Chapter 03 00:17:30.000 : en:Chapter 04 00:23:20.000 : en:Chapter 05 00:29:10.000 : en:Chapter 06 00:35:00.000 : en:Chapter 07 00:40:50.000 : en:Chapter 08 00:46:40.000 : en:Chapter 09 00:52:30.000 : en:Chapter 10 00:58:20.000 : en:Chapter 11 01:04:10.000 : en:Chapter 12 01:10:00.000 : en:Chapter 13 01:15:50.000 : en:Chapter 14 01:21:40.000 : en:Chapter 15 01:27:30.000 : en:Chapter 16
Релиз: Присоединяйся к: Кликай на баннеры.

Всего файлов в раздаче: 1 
Refuge.2023.DVO.WEB-DLRip.720p.x264.seleZen.mkv2.13 GB

Похожие раздачи по запросу - Убежище
2024-05-13 magnet Убежище / Refuge (2023) WEB-DL 1080p | ViruseProject 5.46 GB ↑ 1 ↓ 1
2024-05-13 magnet Убежище / Refuge (2023) WEB-DLRip от New-Team | P2 | ViruseProject 1.46 GB ↑ 0 ↓ 0
2024-04-13 magnet Дмитрий Дорничев - Моё пространственное убежище [10 книг] (2021-2024) МР3 3.98 GB ↑ 0 ↓ 0
2024-03-13 magnet Дмитрий Дорничев - Моё пространственное убежище 9. Глобализация (2024) МР3 333.15 MB ↑ 0 ↓ 0
2023-12-12 magnet Дмитрий Дорничев - Моё пространственное убежище 7. Тернистый путь к успеху (2023) МР3 338.04 MB ↑ 0 ↓ 0
2023-12-01 magnet Андрей Макаревич - Убежище (2023) MP3 90.11 MB ↑ 1 ↓ 0
2023-08-25 magnet Анна Старобинец - Убежище 3/9 (2023) MP3 544.60 MB ↑ 0 ↓ 0

Кто качает (только для создателя раздачи и модераторов):
ПользовательIP:портОтдалПринялОстатокСидируетТоррент клиентОбновился
1 Аноним 158.137.113.89:39081 0.00 B 95.38 MB 2.05 GB нет -qB4390- 09:01 2024-05-19

Комментарии


Зарегистрируйтесь чтобы добавить комментарий
Торрент клиент
byTorrent - программа для загрузки торрент-файлов.

Скачать byTorrent.exe (1,5 МБ)

Скачать byTorrent.zip (0,6 МБ)

Поддержи torrent.by
российских рублей
(300 российских рублей это 4$)

Обратная связь rss

End game ©