↑↓torrent.by
Поиск
Логин:  Регистрация
Пароль:

Редкая птица [S01] (2024) WEB-DLRip-AVC от Generalfilm | КПК

download Скачать торрент-файл   magnet Магнитная ссылка Размер: 878.62 MB Добавлен: 2024-05-13 05:00
Пиры будут получены из сети DHT
Последний сидер был замечен вчера в 21:33
Информация о фильме Оригинальное название: Редкая птица Год выхода: 2024 Жанр: Военный, мелодрама Режиссёр: Ольга Музалева В ролях: Катерина Шпица, Александр Горбатов, Екатерина Чаннова, Александра Соловьева, Евгения Лезгинцева, Анастасия Цибизова, Сергей Пускепалис, Михаил Тройник, Кирилл Гребенщиков, Дмитрий Муляр, Кирилл Запорожский, Алексей Коряков, Евгений Кошелев, Ирина Латушко, Василиса Немцова, Егор Горин, Максим Севриновский, Сергей Грузинов, Николай Сердцев, Наталья Батрак, Елена Ворончихина, Кирилл Гончаров, Никита Патуев, Алексей Весёлкин, Артем Шевченко, Илларион Маров, Владислав Кулыгин О сериале: 1943 год. Анна Петрова — боевая лётчица, которая получила тяжёлую травму. Она вернулась в тыл и работает ведущим инженером на авиационном заводе, где готовят к испытаниям новые самолеты «Кречеты». Руководство завода, не зная о последствиях её травмы, поручает Анне вместе с майором Зотовым перегнать опытный образец «Кречета» на фронт. Кроме желания одержать победу над врагом и вернуться домой с победой, Анна преследует и личную цель. Она настроена поквитаться с майором Бриггелем — немецким лётчиком, из-за которого погиб её возлюбленный. Страна: Россия Студия: Кинокомпания "ХитФильм Продакшн", "МТС Медиа" Продолжительность: 4 x ~ 00:48:00 Перевод: Не требуется Файл Формат: MP4 Качество: WEB-DLRip-AVC Видео: MPEG-4 AVC (x264), 640x360, ~ 500 kbps, 25.000 fps Аудио: AAC LC, 48.0 KHz, 2 ch, 128 Kbps Субтитры: Нет
[+] Скриншоты
[+] MIComplete name : D:киноRedkaya.Ptica.S01.2024.WEB-DLRip-AVC.KPK.GFRedkaya.Ptica.s01e02.2024.WEB-DLRip-AVC.KPK.GF.mp4 Format : MPEG-4 Codec ID : M4V (isom/iso2/avc1) File size : 219 MiB Duration : 48mn 19s Overall bit rate mode : Variable Overall bit rate : 634 Kbps Writing application : Lavf53.19.0 Video ID : 1 Format : AVC Format/Info : Advanced Video Codec Format profile : High@L4.1 Format settings, CABAC : Yes Format settings, ReFrames : 8 frames Codec ID : avc1 Codec ID/Info : Advanced Video Coding Duration : 48mn 19s Bit rate : 500 Kbps Width : 640 pixels Height : 360 pixels Display aspect ratio : 16:9 Frame rate mode : Constant Frame rate : 25.000 fps Color space : YUV Chroma subsampling : 4:2:0 Bit depth : 8 bits Scan type : Progressive Bits/(Pixel*Frame) : 0.087 Stream size : 173 MiB (79%) Writing library : x264 core 146 r2538 121396c Encoding settings : cabac=1 / ref=8 / deblock=1:-1:-1 / analyse=0x3:0x133 / me=umh / subme=10 / psy=1 / psy_rd=1.00:0.00 / mixed_ref=1 / me_range=24 / chroma_me=1 / trellis=2 / 8x8dct=1 / cqm=0 / deadzone=21,11 / fast_pskip=1 / chroma_qp_offset=-2 / threads=3 / lookahead_threads=1 / sliced_threads=0 / nr=0 / decimate=1 / interlaced=0 / bluray_compat=0 / constrained_intra=0 / bframes=8 / b_pyramid=2 / b_adapt=2 / b_bias=0 / direct=3 / weightb=1 / open_gop=0 / weightp=2 / keyint=250 / keyint_min=126 / scenecut=40 / intra_refresh=0 / rc_lookahead=40 / rc=2pass / mbtree=1 / bitrate=500 / ratetol=1.0 / qcomp=0.60 / qpmin=0 / qpmax=69 / qpstep=4 / cplxblur=20.0 / qblur=0.5 / ip_ratio=1.40 / aq=1:1.00 Menus : 3 Audio ID : 2 Format : AAC Format/Info : Advanced Audio Codec Format profile : LC Codec ID : 40 Duration : 48mn 19s Bit rate mode : Variable Bit rate : 128 Kbps Channel(s) : 2 channels Channel positions : Front: L R Sampling rate : 48.0 KHz Frame rate : 46.875 fps (1024 spf) Compression mode : Lossy Stream size : 44.1 MiB (20%) Default : Yes Alternate group : 1 Menus : 3
Релиз от:

Всего файлов в раздаче: 4 
Redkaya.Ptica.s01e01.2024.WEB-DLRip-AVC.KPK.GF.mp4219.08 MB
Redkaya.Ptica.s01e02.2024.WEB-DLRip-AVC.KPK.GF.mp4218.96 MB
Redkaya.Ptica.s01e03.2024.WEB-DLRip-AVC.KPK.GF.mp4219.32 MB
Redkaya.Ptica.s01e04.2024.WEB-DLRip-AVC.KPK.GF.mp4221.26 MB

Похожие раздачи по запросу - Редкая
2024-05-13 magnet Редкая птица [S01] (2024) WEB-DL 720p от Files-x 5.48 GB ↑ 0 ↓ 0
2024-05-12 magnet Редкая птица [S01] (2024) WEB-DLRip-AVC от Files-x 2.43 GB ↑ 0 ↓ 0
2024-05-12 magnet Редкая птица [S01] (2024) WEB-DLRip 2.51 GB ↑ 1 ↓ 0
2024-05-12 magnet Редкая птица [01-03 из 04] (2024) WEB-DL 720p от Files-x 4.10 GB ↑ 0 ↓ 0
2024-05-12 magnet Редкая птица [S01] (2024) WEB-DL 1080p 8.57 GB ↑ 0 ↓ 0
2024-05-11 magnet Редкая птица [01-03 из 04] (2024) WEB-DLRip 1.88 GB ↑ 0 ↓ 0
2024-05-11 magnet Редкая птица [01-03 из 04] (2024) WEB-DL 1080p 6.41 GB ↑ 0 ↓ 0

Кто качает (только для создателя раздачи и модераторов): Локальные пиры отсутствуют

Комментарии


Зарегистрируйтесь чтобы добавить комментарий
Торрент клиент
byTorrent - программа для загрузки торрент-файлов.

Скачать byTorrent.exe (1,5 МБ)

Скачать byTorrent.zip (0,6 МБ)

Поддержи torrent.by
российских рублей
(300 российских рублей это 4$)

Обратная связь rss

End game ©