↑↓torrent.by
Поиск
Логин:  Регистрация
Пароль:

Новая жизнь / New Life (2023) WEB-DLRip от New-Team | P | TVShows

download Скачать торрент-файл   magnet Магнитная ссылка Размер: 1.46 GB Раздают: 0 Качают: 2 Добавлен: 2024-05-13 05:00
Пиры будут получены из сети DHT
Последний сидер был замечен 2024-05-19 13:33
Новая жизнь / New Life Год выпуска: 2023 Выпущено: США / American Storyworks, Great Lakes Vacuum Supplies Unlimited Жанр: ужасы, триллер Режиссер: Джон Росман / John Rosman В ролях: Соня Уолгер, Хейли Эрин, Тони Амендола, Ник Джордж, Айанна Беркшир, Блейн Палмер, Джеб Беррье, Синди Роудс, Дэвид Лофтус О фильме: Джесс думает, что виновна в убийстве и уверена, что ее единственный шанс на спасение – отправиться на Север. Но она даже не догадывается, что несет в себе нечто ужасающее, грозящее перерасти в пандемию апокалиптических масштабов и подвергает смертельной опасности добрых самаритян, желающих помочь ей. Продолжительность: 01:23:57 Перевод: Профессиональный (многоголосый, закадровый) | TVShows Субтитры: нет. Раздача от: Формат: AVI Качество: WEB-DLRip Видео: 720x304 (2.35:1), 24.000 fps, XviD MPEG-4 ~ 2037 kbps avg, 0.388 bit/pixel, build 73 Аудио: 48 kHz, AC3 Dolby Digital, 3/2 (L,C,R,l,r) + LFE ch, ~ 448 kbps | RUS |
[+] MediaInfoОбщее Полное имя : D:TorrentsNew.Life.2024.WEB-DLRip_от New-Team_by-JNS82.avi Формат : AVI Формат/Информация : Audio Video Interleave Размер файла : 1,46 Гбайт Продолжительность : 1 ч. 23 м. Общий поток : 2 494 Кбит/сек Программа кодирования : VirtualDubMod 1.5.10.2 (build 2540/release) Библиотека кодирования : VirtualDubMod build 2540/release Видео Идентификатор : 0 Формат : MPEG-4 Visual Профиль формата : Advanced Simple@L5 Настройки формата : BVOP1 / Custom Matrix Параметр BVOP формата : 1 Параметр QPel формата : Нет Параметр GMC формата : Без точки перехода Параметр матрицы формата : Выборочная Идентификатор кодека : XVID Идентификатор кодека/Подсказка : XviD Продолжительность : 1 ч. 23 м. Битрейт : 2 037 Кбит/сек Ширина : 720 пикселей Высота : 304 пикселя Соотношение сторон : 2,35:1 Частота кадров : 24,000 кадра/сек Цветовое пространство : YUV Субдискретизация насыщенности : 4:2:0 Битовая глубина : 8 бит Тип развёртки : Прогрессивная Метод сжатия : С потерями Бит/(Пиксели*Кадры) : 0.388 Размер потока : 1,19 Гбайт (82%) Библиотека кодирования : XviD 73 Аудио Идентификатор : 1 Формат : AC-3 Формат/Информация : Audio Coding 3 Коммерческое название : Dolby Digital Идентификатор кодека : 2000 Продолжительность : 1 ч. 23 м. Вид битрейта : Постоянный Битрейт : 448 Кбит/сек Каналы : 6 каналов Channel layout : L R C LFE Ls Rs Частота : 48,0 КГц Частота кадров : 31,250 кадров/сек (1536 SPF) Метод сжатия : С потерями Размер потока : 269 Мбайт (18%) Выравнивание : Разделение по промежуткам Продолжительность промежутка : 42 мс. (1,00 видеокадр) Время предзагрузки промежутка : 500 мс. Service kind : Complete Main

Всего файлов в раздаче: 1 
New.Life.2024.WEB-DLRip_от New-Team_by-JNS82.avi1.46 GB

Похожие раздачи по запросу - Новая
2024-05-20 magnet Новая Битва экстрасенсов [24х01-09] (2024) WEBRip 1080p от Files-x 25.89 GB ↑ 0 ↓ 0
2024-05-20 magnet Новая Битва экстрасенсов [24х01-09] (2024) WEBRip от Files-x 11.15 GB ↑ 0 ↓ 0
2024-05-19 magnet Новая Битва экстрасенсов [24х01-09] (2024) WEBRip 720p от Files-x 11.45 GB ↑ 0 ↓ 0
2024-05-19 magnet Годзилла и Конг: Новая империя / Godzilla x Kong: The New Empire (2024) UHD WEB-DL-HEVC 2160p | 4K | Dolby Vision TV | D, P 21.05 GB ↑ 0 ↓ 0
2024-05-18 magnet Годзилла и Конг: Новая империя / Ґодзілла та Конґ: Нова імперія / Godzilla x Kong: The New Empire (2024) WEB-DL-HEVC 2160p | 4K | SDR | D | UKR 12.70 GB ↑ 0 ↓ 1
2024-05-18 magnet Годзилла и Конг: Новая империя / Godzilla x Kong: The New Empire (2024) UHD WEB-DL-HEVC 2160p | 4K | HDR | Dolby Vision Profile 8 | D, P 21.08 GB ↑ 0 ↓ 1
2024-05-16 magnet Годзилла и Конг: Новая империя / Ґодзілла та Конґ: Нова імперія / Godzilla x Kong: The New Empire (2024) WEB-DL-HEVC 2160p | 4K | HDR | D | UKR 16.69 GB ↑ 0 ↓ 0

Комментарии


Зарегистрируйтесь чтобы добавить комментарий
Торрент клиент
byTorrent - программа для загрузки торрент-файлов.

Скачать byTorrent.exe (1,5 МБ)

Скачать byTorrent.zip (0,6 МБ)

Поддержи torrent.by
российских рублей
(300 российских рублей это 4$)

Обратная связь rss

End game ©