↑↓torrent.by
Поиск
Логин:  Регистрация
Пароль:

Дом на продажу / For Sale (2024) WEB-DL 1080p от New-Team | P | TVShows

download Скачать торрент-файл   magnet Магнитная ссылка Размер: 5.71 GB Раздают: 0 Качают: 2 Добавлен: 2024-05-13 05:00
Пиры будут получены из сети DHT
Последний сидер был замечен вчера в 21:16
Дом на продажу / For Sale Год выпуска: 2024 Выпущено: США / Lucid Gem Productions Жанр: ужасы, комедия Режиссер: Кристофер Шрак / Christopher Schrack В ролях: Эндрю Рот, Коринн Бритти, Елена Торрез, Майкл Шершенович, Шарделль Мур, Мария Кристина Перри, Эрик Алексис, Дэйзи Моррисон, Стив Монтаг, Фрэнк Сталлоне, Рэйчел Любарски, Билл Лорд, Рэйчел Кениг, Лалла Мира О фильме: Когда его жизнь достигает дна, сомнительный продавец находит последний шанс продать дом с привидениями. Продолжительность: 01:55:42 Перевод: Профессиональный (многоголосый, закадровый) | TVShows (Thx. SunOfABeach) Субтитры: Английские (full, SDH) Раздача от: Автор релиза: JNS82. Формат: MKV Качество: WEB-DL 1080p | AMZN Видео: MPEG-4 AVC, 1920x1080, 5776 Кбит/с, (2,40:1), 23,976 fps Аудио #1: AC3, 6 ch, 640 Кбит/с | RUS | Аудио #2: E-AC3, 6 ch, 640 Кбит/с | ENG |
[+] MediaInfoОбщее Уникальный идентификатор : 59703084179194649035236220776396160222 (0x2CEA65507B3B348D628F6F69E9F4FCDE) Полное имя : D:TorrentsFor.Sale.2024.1080p.AMZN_от New-Team.mkv Формат : Matroska Версия формата : Version 4 Размер файла : 5,71 Гбайт Продолжительность : 1 ч. 55 м. Общий поток : 7 059 Кбит/сек Название фильма : For.Sale.2024.1080p.AMZN_от New-Team Дата кодирования : UTC 2024-05-12 16:16:02 Программа кодирования : mkvmerge v79.0 ('Funeral Pyres') 64-bit Библиотека кодирования : libebml v1.4.4 + libmatroska v1.7.1 / Lavf60.16.100 Видео Идентификатор : 1 Формат : AVC Формат/Информация : Advanced Video Codec Профиль формата : High@L4 Настройки формата : CABAC / 4 Ref Frames Параметр CABAC формата : Да Параметр RefFrames формата : 4 кадра Идентификатор кодека : V_MPEG4/ISO/AVC Продолжительность : 1 ч. 55 м. Вид битрейта : Постоянный Битрейт : 5 776 Кбит/сек Номинальный битрейт : 10 000 Кбит/сек Ширина : 1 920 пикселей Высота : 1 080 пикселей Соотношение сторон : 16:9 Режим частоты кадров : Постоянный Частота кадров : 23,976 (24000/1001) кадра/сек Цветовое пространство : YUV Субдискретизация насыщенности : 4:2:0 Битовая глубина : 8 бит Тип развёртки : Прогрессивная Бит/(Пиксели*Кадры) : 0.116 Размер потока : 4,67 Гбайт (82%) Default : Да Forced : Нет Цветовой диапазон : Limited Основные цвета : BT.709 Характеристики трансфера : BT.709 Коэффициенты матрицы : BT.709 Аудио #1 Идентификатор : 2 Формат : AC-3 Формат/Информация : Audio Coding 3 Коммерческое название : Dolby Digital Идентификатор кодека : A_AC3 Продолжительность : 1 ч. 55 м. Вид битрейта : Постоянный Битрейт : 640 Кбит/сек Каналы : 6 каналов Channel layout : L R C LFE Ls Rs Частота : 48,0 КГц Частота кадров : 31,250 кадров/сек (1536 SPF) Метод сжатия : С потерями Размер потока : 530 Мбайт (9%) Заголовок : MVO - TVShows Язык : Russian Service kind : Complete Main Default : Да Forced : Нет Аудио #2 Идентификатор : 3 Формат : E-AC-3 Формат/Информация : Enhanced AC-3 Коммерческое название : Dolby Digital Plus Идентификатор кодека : A_EAC3 Продолжительность : 1 ч. 55 м. Вид битрейта : Постоянный Битрейт : 640 Кбит/сек Каналы : 6 каналов Channel layout : L R C LFE Ls Rs Частота : 48,0 КГц Частота кадров : 31,250 кадров/сек (1536 SPF) Метод сжатия : С потерями Размер потока : 530 Мбайт (9%) Заголовок : Original Язык : English Service kind : Complete Main Default : Нет Forced : Нет Текст #1 Идентификатор : 4 Формат : UTF-8 Идентификатор кодека : S_TEXT/UTF8 Идентификатор кодека/Информация : UTF-8 Plain Text Продолжительность : 1 ч. 55 м. Битрейт : 40 бит/сек Count of elements : 1202 Размер потока : 34,5 Кбайт (0%) Заголовок : Язык : English Default : Нет Forced : Нет Текст #2 Идентификатор : 5 Формат : UTF-8 Идентификатор кодека : S_TEXT/UTF8 Идентификатор кодека/Информация : UTF-8 Plain Text Продолжительность : 1 ч. 55 м. Битрейт : 46 бит/сек Count of elements : 1437 Размер потока : 39,3 Кбайт (0%) Заголовок : Язык : English Default : Нет Forced : Нет Меню 00:00:00.000 : en:Scene 01 01:51:51.125 : en:End Credits

Всего файлов в раздаче: 1 
For.Sale.2024.1080p.AMZN_от New-Team.mkv5.71 GB

Похожие раздачи по запросу - Дом
Вчера magnet Дом на продажу / For Sale (2024) WEB-DLRip-AVC | P | TVShows 1.74 GB ↑ 0 ↓ 2
2024-05-13 magnet Дом на продажу / For Sale (2024) WEB-DLRip от New-Team | P | TVShows 1.46 GB ↑ 0 ↓ 0
2024-05-07 magnet Дом из песка и тумана / House of Sand and Fog (2003) WEB-DLRip-AVC от DoMiNo | D 745.42 MB ↑ 0 ↓ 0
2024-04-29 magnet Дом у дороги / Road House (2024) WEB-DLRip 1080p от ExKinoRay | D, P, P2, A 13.52 GB ↑ 0 ↓ 1
2024-04-29 magnet Дом у дороги / Road House (2024) WEB-DLRip 720p от DoMiNo & селезень | D | Red Head Sound, Flarrow Films, HDRezka Studio 5.05 GB ↑ 0 ↓ 0
2024-04-29 magnet Дом у дороги / Road House (2024) WEB-DL 2160р от Scarabey | 4K | HDR10+ | D | Red Head Sound 17.92 GB ↑ 0 ↓ 0
2024-04-29 magnet Дом у дороги / Road House (2024) WEB-DL 1080p от Scarabey | D | Red Head Sound 8.67 GB ↑ 0 ↓ 0

Кто качает (только для создателя раздачи и модераторов):
ПользовательIP:портОтдалПринялОстатокСидируетТоррент клиентОбновился
1 Аноним 63.195.87.213:40433 11.16 MB 3.82 GB 5.62 GB нет -qB4390- 09:29 2024-05-18
2 Аноним 132.19.113.176:44739 20.57 MB 2.56 GB 5.63 GB нет -qB4390- 09:34 2024-05-18

Комментарии


Зарегистрируйтесь чтобы добавить комментарий
Торрент клиент
byTorrent - программа для загрузки торрент-файлов.

Скачать byTorrent.exe (1,5 МБ)

Скачать byTorrent.zip (0,6 МБ)

Поддержи torrent.by
российских рублей
(300 российских рублей это 4$)

Обратная связь rss

End game ©