↑↓torrent.by
Поиск
Логин:  Регистрация
Пароль:

Сын француза / Le fils du Français (1999) WEB-DLRip-AVC от ExKinoRay | P

download Скачать торрент-файл   magnet Магнитная ссылка Размер: 1.85 GB Добавлен: 2024-05-13 11:00
Пиры будут получены из сети DHT
Последний сидер был замечен 2024-06-16 21:43
Информация о фильме Название: Сын француза Оригинальное название: Le fils du Français Год выхода: 1999 Жанр: Комедия, приключения, семейный Режиссер: Жерар Лозье В ролях: Фанни Ардан, Жозиан Баласко, Тьерри Фремон, Давид-Александр Парки, Лука Барбарески, Джордж Агилар, Эрик Буше, Даниэль Чекальди, Сирилл Бонне, Фанни Валетт, Файзал Аттиа, Родольфо де Соуза, Мамаду Диуме, Изабель Доваль, Ральф Киннард, Даниэль Верите, Александр Кумпан, Жан-Пьер Клами, Салах Тескук, Энрике Дорант, Дорис Диас, Элиза Эскамес О фильме: Бенжамен - девятилетний парижский мальчик, растущий без матери и мечтающий найти своего отца. Но проблема в том, что его отец является золотоискателем в дебрях джунглей Амазонки. До него трудно добраться. Но Бенджамин не сдаётся и организует поездку в Бразилию, а так как не может ехать один, уговаривает двух своих бабушек. Для обеих женщин это совместное путешествие - большая проблема. Они полные противоположности и искренне ненавидят друг друга. Но это только начало неприятностей... Страна: Франция Студия: Cofimage 10, Film Par Film, TF1 Films Production Продолжительность: 01:42:10 Перевод: Профессиональный (многоголосый закадровый) Файл Формат: MKV Качество: WEB-DLRip-AVC Видео: MPEG-4 AVC, 800x434, 2400 Кбит/с Аудио: AC3, 2 ch, 192 Кбит/с Субтитры: Нет
[+] MIОбщее Уникальный идентификатор : 9192914978143916405081307651495031824 (0x6EA7DB3B350FCDFEA785DECF995F410) Полное имя : D:MOVIESLe.fils.du.Francais.1999.WEB-DLRip-AVC.ExKinoRay.mkv Формат : Matroska Версия формата : Version 4 Размер файла : 1,85 Гбайт Продолжительность : 1 ч. 42 мин. Общий битрейт : 2 594 Кбит/сек Частота кадров : 25,000 кадров/сек Дата кодирования : 2024-05-12 13:51:14 UTC Программа кодирования : mkvmerge v45.0.0 ('Heaven in Pennies') 64-bit Библиотека кодирования : libebml v1.3.10 + libmatroska v1.5.2 Видео Идентификатор : 1 Формат : AVC Формат/Информация : Advanced Video Codec Профиль формата : High@L4.1 Настройки формата : CABAC / 11 Ref Frames Параметр CABAC формата : Да Параметр RefFrames формата : 11 кадров Идентификатор кодека : V_MPEG4/ISO/AVC Продолжительность : 1 ч. 42 мин. Битрейт : 2 400 Кбит/сек Ширина : 800 пикселей Высота : 434 пикселя Соотношение сторон дисплея : 1,85:1 Режим частоты кадров : Постоянный Частота кадров : 25,000 кадров/сек Цветовое пространство : YUV Цветовая субдискретизация : 4:2:0 Битовая глубина : 8 бит Тип развёртки : Прогрессивная Бит/(Пиксели*Кадры) : 0.276 Размер потока : 1,71 Гбайт (93%) Библиотека кодирования : x264 core 164 r3190 7ed753b Параметры библиотеки кодирования : cabac=1 / ref=11 / deblock=1:-2:-2 / analyse=0x3:0x133 / me=umh / subme=10 / psy=1 / psy_rd=1.05:0.12 / mixed_ref=1 / me_range=32 / chroma_me=1 / trellis=2 / 8x8dct=1 / cqm=0 / deadzone=21,11 / fast_pskip=0 / chroma_qp_offset=-3 / threads=6 / lookahead_threads=1 / sliced_threads=0 / nr=0 / decimate=0 / interlaced=0 / bluray_compat=0 / constrained_intra=0 / bframes=10 / b_pyramid=2 / b_adapt=2 / b_bias=0 / direct=3 / weightb=1 / open_gop=0 / weightp=2 / keyint=250 / keyint_min=25 / scenecut=40 / intra_refresh=0 / rc=2pass / mbtree=0 / bitrate=2400 / ratetol=1.0 / qcomp=0.60 / qpmin=0 / qpmax=69 / qpstep=4 / cplxblur=20.0 / qblur=0.5 / ip_ratio=1.40 / pb_ratio=1.30 / aq=1:1.00 Язык : Английский По умолчанию : Да Принудительно : Нет Цветовой диапазон : Limited Основные цвета : BT.709 Характеристики трансфера : BT.709 Коэффициенты матрицы : BT.709 Аудио Идентификатор : 2 Формат : AC-3 Формат/Информация : Audio Coding 3 Коммерческое название : Dolby Digital Идентификатор кодека : A_AC3 Продолжительность : 1 ч. 42 мин. Вид битрейта : Постоянный Битрейт : 192 Кбит/сек Канал(-ы) : 2 канала Расположение каналов : L R Частота дискретизации : 48,0 КГц Частота кадров : 31,250 кадров/сек (1536 SPF) Метод сжатия : С потерями Размер потока : 140 Мбайт (7%) Заголовок : MVO Язык : Русский Вид сервиса : Complete Main По умолчанию : Да Принудительно : Нет Нормализация звука речи : -31 dB dialnorm_Average : -31 dB dialnorm_Minimum : -31 dB dialnorm_Maximum : -31 dB Меню 00:00:00.000 : en:Chapter 1 01:38:16.840 : en:End Credits
[+] Скриншоты

Всего файлов в раздаче: 1 
Le.fils.du.Francais.1999.WEB-DLRip-AVC.ExKinoRay.mkv1.85 GB

Похожие раздачи по запросу - Сын
2024-04-14 magnet Последний сын / The Last Son (2021) HDRip-AVC от DoMiNo | A 1.45 GB ↑ 0 ↓ 0
2023-10-11 magnet Флора и сын / Flora and Son (2023) WEB-DLRip-AVC | TVShows 1.67 GB ↑ 0 ↓ 0
2023-03-15 magnet Сын / The Son (2022) WEB-DLRip-AVC от ExKinoRay | D 743.74 MB ↑ 0 ↓ 0

Комментарии


Зарегистрируйтесь чтобы добавить комментарий
Торрент клиент
byTorrent - программа для загрузки торрент-файлов.

Скачать byTorrent.exe (1,5 МБ)

Скачать byTorrent.zip (0,6 МБ)

Поддержи torrent.by
российских рублей
(300 российских рублей это 4$)

Обратная связь rss

End game ©