↑↓torrent.by
Поиск
Логин:  Регистрация
Пароль:

Миллиард (2019) WEB-DL-HEVC 2160p | 4K | SDR

download Скачать торрент-файл   magnet Магнитная ссылка Размер: 13.60 GB Добавлен: 2024-05-13 11:00
Пиры будут получены из сети DHT
Последний сидер был замечен вчера в 07:08
Информация о фильме Название: Миллиард Год выхода: 2019 Жанр: Комедия, боевик Режиссер: Роман Прыгунов В ролях: Владимир Машков, Александра Бортич, Гела Месхи, Павел Чинарёв, Марина Петренко, Мария Миронова, Даниил Спиваковский, Григорий Калинин, Федор Бавтриков, Дмитрий Астрахан, Дмитрий Комиссаров, Кристина Юдичева, Андрей Трушин, Марко Динелли, Эдгар Гизатуллин, Эльдар Мамедов, Василиса Семашкова, Валентин Самохин, Александр Обласов, Людмила Житкова, Светлана Новицкая, Михаил Прохоров, Ксения Кандаурова, Ольга Грекова, Матвей Лыков, Дмитрий Луговкин, Александр Сибирцев, Николай Сердцев, Сергей Масленников О фильме: Влиятельный банкир делает всё возможное, чтобы не делиться имуществом со своими незаконнорожденными сыновьями. Но когда его лишают всех денег, выясняется, что помочь Матвею могут только они… Чтобы вернуть себе состояние, миллиардер будет вынужден пойти на ограбление собственного банка в Монте-Карло. А для этого ему придётся выполнить ещё более сложную задачу: вернуть доверие выросших без отца детей… Страна: Россия Студия: RSS Production Продолжительность: 01:36:46 Язык: Русский Премьера в Росcии: 18 апреля 2019 года Цифровой релиз: 01 июля 2019 года Примечание: Без рекламы Возраст: 12+ Файл Формат: MKV Качество: WEB-DL-HEVC 2160p Видео: MPEG-H HEVC, ~ 19.7 Мбит/с, 3840x1608, 25 Кадр/с, 10 бит Звук: AC3, 6 ch, 384 Кбит/с Субтитры: Русские (полные) Семпл
[+] Скриншоты
[+] MIОбщее Уникальный идентификатор : 247175524644632020919162036721014456250 (0xB9F44641EA0EB408B838518B711EBFBA) Полное имя : D:Milliard.2019.WEB-DL.2160p.SDR.mkv Формат : Matroska Версия формата : Version 4 Размер файла : 13,6 Гбайт Продолжительность : 1 ч. 36 м. Общий поток : 20,1 Мбит/сек Название фильма : Milliard.2019.WEB-DL.2160p.SDR Дата кодирования : UTC 2024-03-28 20:47:17 Программа кодирования : mkvmerge v83.0 ('Circle Of Friends') 64-bit Библиотека кодирования : libebml v1.4.5 + libmatroska v1.7.1 Attachments : poster.jpg Видео Идентификатор : 1 Формат : HEVC Формат/Информация : High Efficiency Video Coding Профиль формата : Main 10@L5@High Идентификатор кодека : V_MPEGH/ISO/HEVC Продолжительность : 1 ч. 36 м. Битрейт : 19,7 Мбит/сек Ширина : 3 840 пикселей Высота : 1 608 пикселей Соотношение сторон : 2,40:1 Режим частоты кадров : Постоянный Частота кадров : 25,000 кадров/сек Цветовое пространство : YUV Субдискретизация насыщенности : 4:2:0 Битовая глубина : 10 бит Бит/(Пиксели*Кадры) : 0.128 Размер потока : 13,3 Гбайт (98%) Библиотека кодирования : x265 2.6: 10bit Настройки программы : cpuid=1173503 / frame-threads=5 / wpp / no-pmode / no-pme / no-psnr / no-ssim / log-level=2 / input-csp=1 / input-res=3840x1608 / interlace=0 / total-frames=0 / level-idc=50 / high-tier=1 / uhd-bd=0 / ref=3 / no-allow-non-conformance / repeat-headers / annexb / no-aud / no-hrd / info / hash=0 / no-temporal-layers / no-open-gop / min-keyint=50 / keyint=50 / bframes=3 / b-adapt=2 / b-pyramid / bframe-bias=0 / rc-lookahead=20 / lookahead-slices=8 / scenecut=0 / no-intra-refresh / ctu=64 / min-cu-size=8 / no-rect / no-amp / max-tu-size=32 / tu-inter-depth=1 / tu-intra-depth=1 / limit-tu=0 / rdoq-level=0 / dynamic-rd=0.00 / no-ssim-rd / signhide / no-tskip / nr-intra=0 / nr-inter=0 / constrained-intra / strong-intra-smoothing / max-merge=2 / limit-refs=3 / no-limit-modes / me=1 / subme=2 / merange=80 / temporal-mvp / weightp / no-weightb / no-analyze-src-pics / deblock=0:0 / sao / no-sao-non-deblock / rd=3 / no-early-skip / rskip / no-fast-intra / no-tskip-fast / no-cu-lossless / no-b-intra / no-splitrd-skip / rdpenalty=0 / psy-rd=2.00 / psy-rdoq=0.00 / no-rd-refine / analysis-reuse-mode=0 / no-lossless / cbqpoffs=0 / crqpoffs=0 / rc=abr / bitrate=20000 / qcomp=0.60 / qpstep=4 / stats-write=0 / stats-read=0 / vbv-maxrate=30000 / vbv-bufsize=60000 / vbv-init=0.9 / ipratio=1.40 / pbratio=1.30 / aq-mode=1 / aq-strength=1.00 / cutree / zone-count=0 / no-strict-cbr / qg-size=32 / no-rc-grain / qpmax=69 / qpmin=0 / no-const-vbv / sar=1 / overscan=0 / videoformat=5 / range=0 / colorprim=2 / transfer=2 / colormatrix=2 / chromaloc=0 / display-window=0 / max-cll=0,0 / min-luma=0 / max-luma=1023 / log2-max-poc-lsb=8 / vui-timing-info / vui-hrd-info / slices=1 / no-opt-qp-pps / no-opt-ref-list-length-pps / no-multi-pass-opt-rps / scenecut-bias=0.05 / no-opt-cu-delta-qp / no-aq-motion / no-hdr / no-hdr-opt / no-dhdr10-opt / analysis-reuse-level=5 / scale-factor=0 / refine-intra=0 / refine-inter=0 / refine-mv=0 / no-limit-sao / ctu-info=0 / no-lowpass-dct / refine-mv-type=0 / copy-pic=1 Язык : Russian Default : Да Forced : Нет Аудио Идентификатор : 2 Формат : AC-3 Формат/Информация : Audio Coding 3 Коммерческое название : Dolby Digital Идентификатор кодека : A_AC3 Продолжительность : 1 ч. 36 м. Вид битрейта : Постоянный Битрейт : 384 Кбит/сек Каналы : 6 каналов Channel layout : L R C LFE Ls Rs Частота : 48,0 КГц Частота кадров : 31,250 кадров/сек (1536 SPF) Метод сжатия : С потерями Размер потока : 266 Мбайт (2%) Заголовок : Язык : Russian Service kind : Complete Main Default : Да Forced : Нет Текст Идентификатор : 3 Формат : UTF-8 Идентификатор кодека : S_TEXT/UTF8 Идентификатор кодека/Информация : UTF-8 Plain Text Продолжительность : 1 ч. 33 м. Битрейт : 80 бит/сек Частота кадров : 0,174 кадр/сек Count of elements : 976 Размер потока : 55,2 Кбайт (0%) Заголовок : Язык : Russian Default : Нет Forced : Нет

Всего файлов в раздаче: 1 
Milliard.2019.WEB-DL.2160p.SDR.mkv13.60 GB

Кто качает (только для создателя раздачи и модераторов): Локальные пиры отсутствуют

Комментарии


Зарегистрируйтесь чтобы добавить комментарий
Торрент клиент
byTorrent - программа для загрузки торрент-файлов.

Скачать byTorrent.exe (1,5 МБ)

Скачать byTorrent.zip (0,6 МБ)

Поддержи torrent.by
российских рублей
(300 российских рублей это 4$)

Обратная связь rss

End game ©