↑↓torrent.by
Поиск
Логин:  Регистрация
Пароль:

Министерство неджентльменских дел / The Ministry of Ungentlemanly Warfare (2024) WEB-DLRip-AVC от New-Team | D, P2 | Локализованная версия

download Скачать торрент-файл   magnet Магнитная ссылка Размер: 2.17 GB Добавлен: 2024-05-13 11:00
Пиры будут получены из сети DHT
Последний сидер был замечен 2024-05-19 17:48
Министерство неджентльменских дел / The Ministry of Ungentlemanly Warfare Год выпуска: 2024 Выпущено: США, Великобритания, Турция / Black Bear, Jerry Bruckheimer Films, Lions Gate Films, Media Capital Technologies Жанр: боевик, драма, военный, история Режиссер: Гай Ричи / Guy Ritchie В ролях: Генри Кавилл, Эйса Гонсалес, Алан Ричсон, Генри Голдинг, Хиро Файннс-Тиффин, Кэри Элвис, Алекс Петтифер, Тиль Швайгер, Бабс Олусанмокун, Фредди Фокс, Генри Зага, Алессандро Бабалола, Рори Киннер, Джеймс Уилби, Саймон Пейсли Дэй, Пол Энтони-Барбер, Тим Сейфи, Рассел Балог, Мэтью Хоксли, Лука Маррокко, Бикия Грэм Дуглас, Джордж Эспри, Виктор Ошин, Марк Остервен, Дэнни Сапани, Пол О'Келли, Николас Салмон О фильме: 1942 год, Великобритания. Они — лучшие из лучших. Отпетые авантюристы и первоклассные спецы, привыкшие действовать в одиночку. Но когда на кону стоит судьба всего мира, им приходится объединиться в сверхсекретное боевое подразделение и отправиться на выполнение дерзкой миссии против нацистов. Теперь их дело — война, и вести они её будут совершенно не по-джентльменски. Продолжительность: 01:59:57 Перевод: #1: Профессиональный (полное дублирование) | Мосфильм-Мастер #2: Профессиональный (двухголосый, закадровый) | Кубик в Кубе | 18+ Субтитры: Русские (forced, full, SDH), английские Раздача от: Автор релиза: JNS82. Формат: MKV Качество: WEB-DLRip-AVC | Локализованный видеоряд Видео: MPEG-4 AVC, 1024x428, 1701 Кбит/с, (2,40:1), 23,976 fps Аудио #1: AC3, 6 ch, 448 Кбит/с | RUS | DUB Аудио #2: AC3, 6 ch, 448 Кбит/с | RUS | DVO
[+] MediaInfoОбщее Уникальный идентификатор : 337330032653789681691033231259383561052 (0xFDC766AEAE16939EE520A9EA8A8AFB5C) Полное имя : D:TorrentsThe.Ministry.of.Ungentlemanly.Warfare.2024.WEB-DLRip-AVC_от New-Team_by_JNS82.mkv Формат : Matroska Версия формата : Version 4 Размер файла : 2,17 Гбайт Продолжительность : 1 ч. 59 м. Общий поток : 2 589 Кбит/сек Название фильма : The.Ministry.of.Ungentlemanly.Warfare.2024.WEB-DLRip-AVC_от New-Team_by_JNS82 Дата кодирования : UTC 2024-05-13 05:07:36 Программа кодирования : mkvmerge v79.0 ('Funeral Pyres') 64-bit Библиотека кодирования : libebml v1.4.4 + libmatroska v1.7.1 Видео Идентификатор : 1 Формат : AVC Формат/Информация : Advanced Video Codec Профиль формата : High@L4.1 Настройки формата : CABAC / 12 Ref Frames Параметр CABAC формата : Да Параметр RefFrames формата : 12 кадров Идентификатор кодека : V_MPEG4/ISO/AVC Продолжительность : 1 ч. 59 м. Битрейт : 1 701 Кбит/сек Ширина : 1 024 пикселя Высота : 428 пикселей Соотношение сторон : 2,40:1 Режим частоты кадров : Постоянный Частота кадров : 23,976 (24000/1001) кадра/сек Цветовое пространство : YUV Субдискретизация насыщенности : 4:2:0 Битовая глубина : 8 бит Тип развёртки : Прогрессивная Бит/(Пиксели*Кадры) : 0.162 Размер потока : 1,42 Гбайт (65%) Библиотека кодирования : x264 core 164 r3156+57M NewTeam t_mod_New Настройки программы : cabac=1 / ref=12 / deblock=1:-2:-2 / analyse=0x3:0x113 / me=umh / subme=11 / psy=1 / fade_compensate=0.00 / psy_rd=1.05:0.10 / mixed_ref=1 / me_range=32 / chroma_me=1 / trellis=2 / 8x8dct=1 / cqm=0 / deadzone=21,11 / fast_pskip=0 / chroma_qp_offset=-3 / threads=13 / lookahead_threads=3 / sliced_threads=0 / nr=0 / decimate=0 / interlaced=0 / bluray_compat=0 / constrained_intra=0 / fgo=0 / bframes=10 / b_pyramid=2 / b_adapt=2 / b_bias=0 / direct=3 / weightb=1 / open_gop=0 / weightp=2 / keyint=240 / keyint_min=23 / scenecut=40 / intra_refresh=0 / rc_lookahead=60 / rc=2pass / mbtree=0 / bitrate=1701 / ratetol=1.0 / qcomp=0.60 / qpmin=0:0:0 / qpmax=69:69:69 / qpstep=5 / cplxblur=20.0 / qblur=0.5 / vbv_maxrate=50000 / vbv_bufsize=62500 / nal_hrd=none / filler=0 / ip_ratio=1.35 / pb_ratio=1.30 / aq=1:1.00 / aq-sensitivity=10.00 / aq-factor=1.00:1.00:1.00 / aq2=0 / aq3=0 Язык : English Default : Да Forced : Нет Аудио #1 Идентификатор : 2 Формат : AC-3 Формат/Информация : Audio Coding 3 Коммерческое название : Dolby Digital Идентификатор кодека : A_AC3 Продолжительность : 1 ч. 59 м. Вид битрейта : Постоянный Битрейт : 448 Кбит/сек Каналы : 6 каналов Channel layout : L R C LFE Ls Rs Частота : 48,0 КГц Частота кадров : 31,250 кадров/сек (1536 SPF) Метод сжатия : С потерями Размер потока : 384 Мбайт (17%) Заголовок : DUB - Мосфильм-Мастер Язык : Russian Service kind : Complete Main Default : Да Forced : Нет Аудио #2 Идентификатор : 3 Формат : AC-3 Формат/Информация : Audio Coding 3 Коммерческое название : Dolby Digital Идентификатор кодека : A_AC3 Продолжительность : 1 ч. 59 м. Вид битрейта : Постоянный Битрейт : 448 Кбит/сек Каналы : 6 каналов Channel layout : L R C LFE Ls Rs Частота : 48,0 КГц Частота кадров : 31,250 кадров/сек (1536 SPF) Метод сжатия : С потерями Размер потока : 384 Мбайт (17%) Заголовок : DVO - Кубик в Кубе | 18+ Язык : Russian Service kind : Complete Main Default : Нет Forced : Нет Текст #1 Идентификатор : 4 Формат : UTF-8 Идентификатор кодека : S_TEXT/UTF8 Идентификатор кодека/Информация : UTF-8 Plain Text Продолжительность : 1 ч. 44 м. Битрейт : 5 бит/сек Count of elements : 102 Размер потока : 4,59 Кбайт (0%) Заголовок : Язык : Russian Default : Да Forced : Нет Текст #2 Идентификатор : 5 Формат : UTF-8 Идентификатор кодека : S_TEXT/UTF8 Идентификатор кодека/Информация : UTF-8 Plain Text Продолжительность : 1 ч. 47 м. Битрейт : 88 бит/сек Count of elements : 1409 Размер потока : 69,6 Кбайт (0%) Заголовок : Язык : Russian Default : Нет Forced : Нет Текст #3 Идентификатор : 6 Формат : UTF-8 Идентификатор кодека : S_TEXT/UTF8 Идентификатор кодека/Информация : UTF-8 Plain Text Продолжительность : 1 ч. 50 м. Битрейт : 107 бит/сек Count of elements : 1871 Размер потока : 86,8 Кбайт (0%) Заголовок : Язык : Russian Default : Нет Forced : Нет Текст #4 Идентификатор : 7 Формат : UTF-8 Идентификатор кодека : S_TEXT/UTF8 Идентификатор кодека/Информация : UTF-8 Plain Text Продолжительность : 1 ч. 47 м. Битрейт : 56 бит/сек Count of elements : 1387 Размер потока : 44,1 Кбайт (0%) Заголовок : Язык : English Default : Нет Forced : Нет Меню 00:00:00.000 : en:Chapter 1 00:07:11.801 : en:Chapter 2 00:17:34.882 : en:Chapter 3 00:29:55.164 : en:Chapter 4 00:41:31.819 : en:Chapter 5 00:52:35.774 : en:Chapter 6 01:03:16.081 : en:Chapter 7 01:12:50.823 : en:Chapter 8 01:23:35.342 : en:Chapter 9 01:34:58.067 : en:Chapter 10 01:44:26.469 : en:Chapter 11 01:50:19.321 : en:Chapter 12

Всего файлов в раздаче: 1 
The.Ministry.of.Ungentlemanly.Warfare.2024.WEB-DLRip-AVC_от New-Team_by_JNS82.mkv2.17 GB

Похожие раздачи по запросу - Министерство
2024-05-15 magnet Министерство неджентльменских дел / The Ministry of Ungentlemanly Warfare (2024) WEB-DLRip-AVC от ExKinoRay | D, P2 1.07 GB ↑ 0 ↓ 0
2024-05-14 magnet Министерство неджентльменских дел / The Ministry of Ungentlemanly Warfare (2024) UHD WEB-DL-HEVC 2160p | 4K | SDR | D, P2 15.32 GB ↑ 1 ↓ 0
2024-05-14 magnet Министерство неджентльменских дел / The Ministry of Ungentlemanly Warfare (2024) WEB-DL 1080p от Scarabey | D, P2 | Мосфильм-Мастер, Кубик в Кубе, ViruseProject 7.75 GB ↑ 1 ↓ 0
2024-05-14 magnet Министерство неджентльменских дел / The Ministry of Ungentlemanly Warfare (2024) UHD WEB-DL 2160p от Scarabey | 4K | HDR | D, P2 | Мосфильм-мастер, Кубик в кубе 13.99 GB ↑ 0 ↓ 1
2024-05-13 magnet Министерство неджентльменских дел / The Ministry of Ungentlemanly Warfare (2024) WEB-DL-HEVC 2160p | 4K | HDR | D, P2 | Локализованная версия 9.35 GB ↑ 0 ↓ 1
2024-05-13 magnet Министерство неджентльменских дел / The Ministry of Ungentlemanly Warfare (2024) WEB-DLRip-AVC от DoMiNo & селезень | D, P2 | Мосфильм-Мастер, Кубик в Кубе, ViruseProject | Локализованная версия 2.50 GB ↑ 0 ↓ 0
2024-05-13 magnet Министерство неджентльменских дел / The Ministry of Ungentlemanly Warfare (2024) WEB-DLRip 720p от DoMiNo & селезень | D | Мосфильм-Мастер 3.26 GB ↑ 0 ↓ 2

Комментарии


Зарегистрируйтесь чтобы добавить комментарий
Торрент клиент
byTorrent - программа для загрузки торрент-файлов.

Скачать byTorrent.exe (1,5 МБ)

Скачать byTorrent.zip (0,6 МБ)

Поддержи torrent.by
российских рублей
(300 российских рублей это 4$)

Обратная связь rss

End game ©