↑↓torrent.by
Поиск
Логин:  Регистрация
Пароль:

Мосгаз. Дело №10: Метроном [10х01-07 из 08] (2024) WEBRip-AVC от ExKinoRay

download Скачать торрент-файл   magnet Магнитная ссылка Размер: 3.80 GB Добавлен: 2024-05-13 11:00
Пиры будут получены из сети DHT
Последний сидер был замечен 2024-05-14 09:15
Название: Мосгаз. Дело №10: Метроном Год выхода: 2024 Жанр: Детектив, криминал Режиссер: Евгений Звездаков В ролях: Марина Александрова, Алексей Бардуков, Александр Голубев, Андрей Мерзликин, Игорь Золотовицкий, Сергей Шакуров, Фёдор Лавров, Артур Ваха, Эдуард Чекмазов, Андрей Смоляков О фильме: 1982 год. Соня Тимофеева, Алексей Гаркуша и Егор Осадчий теперь сами по себе, а амбициозный майор Виктор Ковалев пытается занять пустующее место руководителя оперативной группы. Тем временем в Москве прямо во время выступления погибает известный эстрадный артист и сотрудник Москонцерта Андрей Гринякин. Все указывает на то, что кто-то пытается «замять» это дело. Соня Тимофеева в тайне от всех начинает вести свое расследование. Понять, что происходит в Москонцерте, пытается и Ковалев. Очевидно, что подпольную деятельность Москонцерта покрывают влиятельные люди. События разворачиваются стремительно: один за другим погибают участники преступной схемы директора Москонцерта Ольшевского. Страна: Россия Студия: Okko Studios, Студия Русский проект Продолжительность: 7 x ~ 00:50:00 Язык: Русский Формат: MKV Качество: WEBRip-AVC Видео: MPEG-4 AVC, 720x404, 25.000 fps, 1350 Kbps, 0.186 bit/pixel Аудио: 48 kHz, AC3, 2/0 ch, ~192.00 kbps avg RUS Субтитры: Русские (Full (Enigma))
[+] МИGeneral Unique ID : 194401195430167962693524960666913170933 (0x92404EF00CA72E03BDD5125F265D65F5) Complete name : D:Mosgaz.Metronom.S10.2024.WEB-DL.AVC.ExKinoRayMosgaz.Metronom.S10.E01.2024.WEB-DL.AVC.ExKinoRay.mkv Format : Matroska Format version : Version 2 File size : 558 MiB Duration : 50 min Overall bit rate : 1 543 kb/s Movie name : Мосгаз. Метроном 01 (2024) from ExKinoRay Encoded date : UTC 2024-05-05 23:04:25 Writing application : mkvmerge v5.6.0 ('Kenya Kane') built on May 27 2012 16:44:04 Writing library : libebml v1.2.3 + libmatroska v1.3.0 Video ID : 1 Format : AVC Format/Info : Advanced Video Codec Format profile : High@L4.1 Format settings, CABAC : Yes Format settings, ReFrames : 10 frames Codec ID : V_MPEG4/ISO/AVC Duration : 50 min Bit rate : 1 350 kb/s Width : 720 pixels Height : 404 pixels Display aspect ratio : 16:9 Frame rate mode : Constant Frame rate : 25.000 FPS Color space : YUV Chroma subsampling : 4:2:0 Bit depth : 8 bits Scan type : Progressive Bits/(Pixel*Frame) : 0.186 Stream size : 477 MiB (86%) Writing library : x264 core 164 r3107+58M ae98796 t_mod_New Encoding settings : cabac=1 / ref=10 / deblock=1:-2:-2 / analyse=0x3:0x133 / me=umh / subme=10 / psy=1 / fade_compensate=0.00 / psy_rd=1.00:0.00 / mixed_ref=1 / me_range=32 / chroma_me=1 / trellis=2 / 8x8dct=1 / cqm=0 / deadzone=21,11 / fast_pskip=0 / chroma_qp_offset=-2 / threads=12 / lookahead_threads=3 / sliced_threads=0 / nr=0 / decimate=0 / interlaced=0 / bluray_compat=0 / constrained_intra=0 / fgo=0 / bframes=10 / b_pyramid=2 / b_adapt=2 / b_bias=0 / direct=3 / weightb=1 / open_gop=0 / weightp=2 / keyint=250 / keyint_min=25 / scenecut=40 / intra_refresh=0 / rc=2pass / mbtree=0 / bitrate=1350 / ratetol=1.0 / qcomp=0.60 / qpmin=0:0:0 / qpmax=69:69:69 / qpstep=4 / cplxblur=20.0 / qblur=0.5 / ip_ratio=1.40 / pb_ratio=1.30 / aq=1:1.00 / aq-sensitivity=10.00 / aq-factor=1.00:1.00:1.00 / aq2=0 / aq3=0 Default : Yes Forced : No Audio ID : 2 Format : AC-3 Format/Info : Audio Coding 3 Mode extension : CM (complete main) Format settings, Endianness : Big Codec ID : A_AC3 Duration : 50 min Bit rate mode : Constant Bit rate : 192 kb/s Channel(s) : 2 channels Channel positions : Front: L R Sampling rate : 48.0 kHz Frame rate : 31.250 FPS (1536 spf) Compression mode : Lossy Stream size : 69.4 MiB (12%) Language : Russian Default : Yes Forced : No Text ID : 3 Format : UTF-8 Codec ID : S_TEXT/UTF8 Codec ID/Info : UTF-8 Plain Text Title : Full (Enigma) Language : Russian Default : No Forced : No
Релиз от: Автор релиза:

Всего файлов в раздаче: 7 
Mosgaz.Metronom.S10.E01.2024.WEB-DL.AVC.ExKinoRay.mkv557.96 MB
Mosgaz.Metronom.S10.E02.2024.WEB-DL.AVC.ExKinoRay.mkv556.40 MB
Mosgaz.Metronom.S10.E03.2024.WEB-DL.AVC.ExKinoRay.mkv573.19 MB
Mosgaz.Metronom.S10.E04.2024.WEB-DL.AVC.ExKinoRay.mkv553.32 MB
Mosgaz.Metronom.S10.E05.2024.WEB-DL.AVC.ExKinoRay.mkv552.08 MB
Mosgaz.Metronom.S10.E06.2024.WEB-DL.AVC.ExKinoRay.mkv546.06 MB
Mosgaz.Metronom.S10.E07.2024.WEB-DL.AVC.ExKinoRay.mkv548.23 MB

Похожие раздачи по запросу - Мосгаз
Вчера magnet Мосгаз [S01-10 из 10] (2012-2024) WEB-DLRip, WEBRip от Generalfilm | КПК 15.66 GB ↑ 0 ↓ 0
2024-05-21 magnet Мосгаз Дело №10 Метроном [S10] (2024) WEBRip от New-Team 3.65 GB ↑ 0 ↓ 0
2024-05-21 magnet Мосгаз Дело №10 Метроном [S10] (2024) WEBRip-AVC от New-Team 6.54 GB ↑ 0 ↓ 0
2024-05-19 magnet Мосгаз Дело №9 Последнее дело Черкасова [S09] (2023) WEBRip-AVC от New-Team 6.53 GB ↑ 0 ↓ 0
2024-05-19 magnet Мосгаз Дело №9 Последнее дело Черкасова [S09] (2023) WEBRip от New-Team 3.65 GB ↑ 0 ↓ 0
2024-05-16 magnet Мосгаз. Дело №10: Метроном [S10] (2024) WEBRip от Files-x 5.00 GB ↑ 0 ↓ 0
2024-05-15 magnet Мосгаз. Дело №10: Метроном [S10] (2024) WEBRip 720p от ExKinoRay 9.64 GB ↑ 1 ↓ 0

Комментарии


Зарегистрируйтесь чтобы добавить комментарий
Торрент клиент
byTorrent - программа для загрузки торрент-файлов.

Скачать byTorrent.exe (1,5 МБ)

Скачать byTorrent.zip (0,6 МБ)

Поддержи torrent.by
российских рублей
(300 российских рублей это 4$)

Обратная связь rss

End game ©