↑↓torrent.by
Поиск
Логин:  Регистрация
Пароль:

Министерство неджентльменских дел / The Ministry of Ungentlemanly Warfare (2024) WEB-DLRip от New-Team | D

download Скачать торрент-файл   magnet Магнитная ссылка Размер: 2.18 GB Добавлен: 2024-05-13 11:00
Пиры будут получены из сети DHT
Последний сидер был замечен вчера в 14:47
Министерство неджентльменских дел / The Ministry of Ungentlemanly Warfare Год выпуска: 2024 Выпущено: США, Великобритания, Турция / Black Bear, Jerry Bruckheimer Films, Lions Gate Films, Media Capital Technologies Жанр: боевик, драма, военный, история Режиссер: Гай Ричи / Guy Ritchie В ролях: Генри Кавилл, Эйса Гонсалес, Алан Ричсон, Генри Голдинг, Хиро Файннс-Тиффин, Кэри Элвис, Алекс Петтифер, Тиль Швайгер, Бабс Олусанмокун, Фредди Фокс, Генри Зага, Алессандро Бабалола, Рори Киннер, Джеймс Уилби, Саймон Пейсли Дэй, Пол Энтони-Барбер, Тим Сейфи, Рассел Балог, Мэтью Хоксли, Лука Маррокко, Бикия Грэм Дуглас, Джордж Эспри, Виктор Ошин, Марк Остервен, Дэнни Сапани, Пол О'Келли, Николас Салмон О фильме: 1942 год, Великобритания. Они — лучшие из лучших. Отпетые авантюристы и первоклассные спецы, привыкшие действовать в одиночку. Но когда на кону стоит судьба всего мира, им приходится объединиться в сверхсекретное боевое подразделение и отправиться на выполнение дерзкой миссии против нацистов. Теперь их дело — война, и вести они её будут совершенно не по-джентльменски. Продолжительность: 02:00:20 Перевод: Профессиональный (полное дублирование) | Мосфильм-Мастер Субтитры: Русские (forced, full, SDH), английские Раздача от: Автор релиза: JNS82. Формат: AVI Качество: WEB-DLRip Видео: 720x304 (2.35:1), 23.976 fps, XviD MPEG-4 ~ 2135 kbps avg, 0.407 bit/pixel, build 74 Аудио: 48 kHz, AC3 Dolby Digital, 3/2 (L,C,R,l,r) + LFE ch, ~ 448 kbps | RUS |
[+] MediaInfoОбщее Полное имя : D:TorrentsThe.Ministry.of.Ungentlemanly.Warfare.2024.WEB-DLRip.2.18_от New-Team_by_JNS82The.Ministry.of.Ungentlemanly.Warfare.2024.WEB-DLRip.2.18_от New-Team_by_JNS82.avi Формат : AVI Формат/Информация : Audio Video Interleave Профиль формата : OpenDML Размер файла : 2,18 Гбайт Продолжительность : 2 ч. 0 м. Общий поток : 2 595 Кбит/сек Программа кодирования : VirtualDubMod 1.5.10.2 (build 2540/release) Библиотека кодирования : VirtualDubMod build 2540/release Видео Идентификатор : 0 Формат : MPEG-4 Visual Профиль формата : Advanced Simple@L5 Настройки формата : BVOP1 / Custom Matrix Параметр BVOP формата : 1 Параметр QPel формата : Нет Параметр GMC формата : Без точки перехода Параметр матрицы формата : Выборочная Идентификатор кодека : XVID Идентификатор кодека/Подсказка : XviD Продолжительность : 2 ч. 0 м. Битрейт : 2 135 Кбит/сек Ширина : 720 пикселей Высота : 304 пикселя Соотношение сторон : 2,35:1 Частота кадров : 23,976 (24000/1001) кадра/сек Цветовое пространство : YUV Субдискретизация насыщенности : 4:2:0 Битовая глубина : 8 бит Тип развёртки : Прогрессивная Метод сжатия : С потерями Бит/(Пиксели*Кадры) : 0.407 Размер потока : 1,79 Гбайт (82%) Библиотека кодирования : XviD 74 Аудио Идентификатор : 1 Формат : AC-3 Формат/Информация : Audio Coding 3 Коммерческое название : Dolby Digital Идентификатор кодека : 2000 Продолжительность : 2 ч. 0 м. Вид битрейта : Постоянный Битрейт : 448 Кбит/сек Каналы : 6 каналов Channel layout : L R C LFE Ls Rs Частота : 48,0 КГц Частота кадров : 31,250 кадров/сек (1536 SPF) Метод сжатия : С потерями Размер потока : 386 Мбайт (17%) Выравнивание : Разделение по промежуткам Продолжительность промежутка : 42 мс. (1,00 видеокадр) Время предзагрузки промежутка : 500 мс. Service kind : Complete Main

Всего файлов в раздаче: 5 
The.Ministry.of.Ungentlemanly.Warfare.2024.WEB-DLRip.1.46_от New-Team_by_JNS82.SDH_[rus].srt160.67 kB
The.Ministry.of.Ungentlemanly.Warfare.2024.WEB-DLRip.1.46_от New-Team_by_JNS82.forced_[rus].srt13.30 kB
The.Ministry.of.Ungentlemanly.Warfare.2024.WEB-DLRip.1.46_от New-Team_by_JNS82.full_[rus].srt124.92 kB
The.Ministry.of.Ungentlemanly.Warfare.2024.WEB-DLRip.1.46_от New-Team_by_JNS82_[eng].srt101.51 kB
The.Ministry.of.Ungentlemanly.Warfare.2024.WEB-DLRip.2.18_от New-Team_by_JNS82.avi2.18 GB

Похожие раздачи по запросу - Министерство
2024-05-15 magnet Министерство неджентльменских дел / The Ministry of Ungentlemanly Warfare (2024) WEB-DLRip-AVC от ExKinoRay | D, P2 1.07 GB ↑ 0 ↓ 0
2024-05-14 magnet Министерство неджентльменских дел / The Ministry of Ungentlemanly Warfare (2024) UHD WEB-DL-HEVC 2160p | 4K | SDR | D, P2 15.32 GB ↑ 1 ↓ 0
2024-05-14 magnet Министерство неджентльменских дел / The Ministry of Ungentlemanly Warfare (2024) WEB-DL 1080p от Scarabey | D, P2 | Мосфильм-Мастер, Кубик в Кубе, ViruseProject 7.75 GB ↑ 2 ↓ 0
2024-05-14 magnet Министерство неджентльменских дел / The Ministry of Ungentlemanly Warfare (2024) UHD WEB-DL 2160p от Scarabey | 4K | HDR | D, P2 | Мосфильм-мастер, Кубик в кубе 13.99 GB ↑ 0 ↓ 1
2024-05-13 magnet Министерство неджентльменских дел / The Ministry of Ungentlemanly Warfare (2024) WEB-DL-HEVC 2160p | 4K | HDR | D, P2 | Локализованная версия 9.35 GB ↑ 0 ↓ 1
2024-05-13 magnet Министерство неджентльменских дел / The Ministry of Ungentlemanly Warfare (2024) WEB-DLRip-AVC от DoMiNo & селезень | D, P2 | Мосфильм-Мастер, Кубик в Кубе, ViruseProject | Локализованная версия 2.50 GB ↑ 0 ↓ 0
2024-05-13 magnet Министерство неджентльменских дел / The Ministry of Ungentlemanly Warfare (2024) WEB-DLRip 720p от DoMiNo & селезень | D | Мосфильм-Мастер 3.26 GB ↑ 0 ↓ 2

Кто качает (только для создателя раздачи и модераторов): Локальные пиры отсутствуют

Комментарии


Зарегистрируйтесь чтобы добавить комментарий
Торрент клиент
byTorrent - программа для загрузки торрент-файлов.

Скачать byTorrent.exe (1,5 МБ)

Скачать byTorrent.zip (0,6 МБ)

Поддержи torrent.by
российских рублей
(300 российских рублей это 4$)

Обратная связь rss

End game ©