↑↓torrent.by
Поиск
Логин:  Регистрация
Пароль:

Дюна: Часть вторая / Дюна: Частина друга / Dune: Part Two (2024) BDRip 720p | D, P | UKR

download Скачать торрент-файл   magnet Магнитная ссылка Размер: 9.86 GB Добавлен: 2024-05-13 17:00
Пиры будут получены из сети DHT
Последний сидер был замечен 2024-05-24 23:13
Информация о фильме Название: Дюна: Часть вторая Оригинальное название: Dune: Part Two Год выхода: 2024 Жанр: фантастика, боевик, драма, приключения Режиссер: Дени Вильнёв В ролях: Тимоти Шаламе, Зендея, Ребекка Фергюсон, Хавьер Бардем, Джош Бролин, Остин Батлер, Флоренс Пью, Дэйв Батиста, Кристофер Уокен, Леа Сейду О фильме: Герцог Пол Атрейдес присоединяется к фременам, чтобы стать Муад Дибом, одновременно пытаясь остановить наступление войны. Страна: США, Канада, ОАЭ, Венгрия, Италия, Новая Зеландия, Иордания, Гамбия Продолжительность: 02:45:48 Перевод: Дублированный, профессиональный (многоголосый закадровый) | (Украинский) Файл Кодек: x.264 Качество: BDRip 720p Видео: AVC, 1280x536 (2.40:1), 23.976 fps, 6877 kb/s Аудио 1: E-AC3, 48.0 kHz, 6 ch, 384 kb/s | UKR Аудио 2: AC3, 48.0 kHz, 6 ch, 384 kb/s | UKR Аудио 3: AC3, 48.0 kHz, 2 ch, 224 kb/s | UKR Аудио 4: AC3, 48.0 kHz, 6 ch, 640 kb/s | ENG Субтитры: украинские (forced, 2xfull), английские (forced - hardsub, full, SDH)
[+] MIGeneral Unique ID : 20776354027134541341672487543203848609 (0xFA161571EDFB69913CEEC9C36DE61A1) Complete name : Dune Part Two (2024) BDRip 720p 2xUkr_Eng.mkv Format : Matroska Format version : Version 4 File size : 9.86 GiB Duration : 2 h 45 min Overall bit rate : 8 513 kb/s Encoded date : UTC 2024-05-09 07:49:40 Writing application : mkvmerge v84.0 ('Sleeper') 64-bit Writing library : libebml v1.4.5 + libmatroska v1.7.1 Cover : Yes Attachments : Cover.jpg Video ID : 1 Format : AVC Format/Info : Advanced Video Codec Format profile : High@L4.1 Format settings : CABAC / 12 Ref Frames Format settings, CABAC : Yes Format settings, Reference frames : 12 frames Codec ID : V_MPEG4/ISO/AVC Duration : 2 h 45 min Bit rate : 6 877 kb/s Width : 1 280 pixels Height : 536 pixels Display aspect ratio : 2.40:1 Frame rate mode : Constant Frame rate : 23.976 (24000/1001) FPS Color space : YUV Chroma subsampling : 4:2:0 Bit depth : 8 bits Scan type : Progressive Bits/(Pixel*Frame) : 0.418 Stream size : 7.97 GiB (81%) Writing library : x264 core 164 r3075+55M t_mod ~ Encoded by luvBB: JigSaw & droops16 Encoding settings : cabac=1 / ref=12 / deblock=1:-3:-3 / analyse=0x3:0x133 / me=umh / subme=10 / psy=1 / fade_compensate=0.00 / psy_rd=1.00:0.00 / mixed_ref=1 / me_range=32 / chroma_me=1 / trellis=2 / 8x8dct=1 / cqm=0 / deadzone=21,11 / fast_pskip=0 / chroma_qp_offset=-2 / threads=16 / lookahead_threads=2 / sliced_threads=0 / nr=0 / decimate=0 / interlaced=0 / bluray_compat=0 / constrained_intra=0 / fgo=0 / bframes=9 / b_pyramid=2 / b_adapt=2 / b_bias=0 / direct=3 / weightb=1 / open_gop=0 / weightp=2 / keyint=250 / keyint_min=23 / scenecut=40 / intra_refresh=0 / rc=crf / mbtree=0 / crf=14.9000 / qcomp=0.60 / qpmin=0:0:0 / qpmax=69:69:69 / qpstep=4 / ip_ratio=1.30 / pb_ratio=1.20 / aq=3:0.85 / aq-sensitivity=10.00 / aq-factor=1.00:1.00:1.00 / aq2=0 / aq3=0 Default : Yes Forced : No Audio #1 ID : 2 Format : E-AC-3 Format/Info : Enhanced AC-3 Commercial name : Dolby Digital Plus Codec ID : A_EAC3 Duration : 2 h 45 min Bit rate mode : Constant Bit rate : 384 kb/s Channel(s) : 6 channels Channel layout : L R C LFE Ls Rs Sampling rate : 48.0 kHz Frame rate : 31.250 FPS (1536 SPF) Compression mode : Lossy Stream size : 455 MiB (5%) Title : DUB (Postmodern) Language : Ukrainian Service kind : Complete Main Default : Yes Forced : No Audio #2 ID : 3 Format : AC-3 Format/Info : Audio Coding 3 Commercial name : Dolby Digital Codec ID : A_AC3 Duration : 2 h 45 min Bit rate mode : Constant Bit rate : 384 kb/s Channel(s) : 6 channels Channel layout : L R C LFE Ls Rs Sampling rate : 48.0 kHz Frame rate : 31.250 FPS (1536 SPF) Compression mode : Lossy Stream size : 455 MiB (5%) Title : DUB (Postmodern) Language : Ukrainian Service kind : Complete Main Default : No Forced : No Audio #3 ID : 4 Format : AC-3 Format/Info : Audio Coding 3 Commercial name : Dolby Digital Codec ID : A_AC3 Duration : 2 h 45 min Bit rate mode : Constant Bit rate : 224 kb/s Channel(s) : 2 channels Channel layout : L R Sampling rate : 48.0 kHz Frame rate : 31.250 FPS (1536 SPF) Compression mode : Lossy Stream size : 266 MiB (3%) Title : MVO Language : Ukrainian Service kind : Complete Main Default : No Forced : No Audio #4 ID : 5 Format : AC-3 Format/Info : Audio Coding 3 Commercial name : Dolby Digital Codec ID : A_AC3 Duration : 2 h 45 min Bit rate mode : Constant Bit rate : 640 kb/s Channel(s) : 6 channels Channel layout : L R C LFE Ls Rs Sampling rate : 48.0 kHz Frame rate : 31.250 FPS (1536 SPF) Compression mode : Lossy Stream size : 759 MiB (8%) Title : Original Language : English Service kind : Complete Main Default : No Forced : No Text #1 ID : 6 Format : UTF-8 Codec ID : S_TEXT/UTF8 Codec ID/Info : UTF-8 Plain Text Duration : 2 h 39 min Bit rate : 7 b/s Count of elements : 214 Stream size : 9.11 KiB (0%) Title : Forced Language : Ukrainian Default : Yes Forced : No Text #2 ID : 7 Format : UTF-8 Codec ID : S_TEXT/UTF8 Codec ID/Info : UTF-8 Plain Text Duration : 2 h 45 min Bit rate : 47 b/s Count of elements : 1334 Stream size : 57.7 KiB (0%) Title : Full (Rakuten) Language : Ukrainian Default : No Forced : No Text #3 ID : 8 Format : UTF-8 Codec ID : S_TEXT/UTF8 Codec ID/Info : UTF-8 Plain Text Duration : 2 h 36 min Bit rate : 53 b/s Count of elements : 1273 Stream size : 61.5 KiB (0%) Title : Full (Bond1976) Language : Ukrainian Default : No Forced : No Text #4 ID : 9 Format : UTF-8 Codec ID : S_TEXT/UTF8 Codec ID/Info : UTF-8 Plain Text Duration : 2 h 35 min Bit rate : 27 b/s Count of elements : 1071 Stream size : 31.3 KiB (0%) Title : Full Language : English Default : No Forced : No Text #5 ID : 10 Format : UTF-8 Codec ID : S_TEXT/UTF8 Codec ID/Info : UTF-8 Plain Text Duration : 2 h 37 min Bit rate : 42 b/s Count of elements : 1725 Stream size : 48.7 KiB (0%) Title : SDH Language : English Default : No Forced : No Menu 00:00:00.000 : en:Chapter 01 00:09:14.220 : en:Chapter 02 00:21:28.913 : en:Chapter 03 00:29:30.018 : en:Chapter 04 00:40:07.905 : en:Chapter 05 00:50:39.912 : en:Chapter 06 01:00:33.129 : en:Chapter 07 01:09:53.523 : en:Chapter 08 01:19:39.483 : en:Chapter 09 01:30:38.933 : en:Chapter 10 01:39:05.064 : en:Chapter 11 01:49:34.860 : en:Chapter 12 01:59:39.422 : en:Chapter 13 02:10:23.607 : en:Chapter 14 02:18:49.279 : en:Chapter 15 02:24:18.233 : en:Chapter 16 02:37:44.789 : en:Chapter 17 02:45:48.689 : en:Chapter 18
[+] Скриншоты

Всего файлов в раздаче: 1 
Dune Part Two (2024) BDRip 720p 2xUkr_Eng.mkv9.86 GB

Похожие раздачи по запросу - Дюна
2024-06-16 magnet Дюна: Часть вторая / Dune: Part Two (2024) BDRip 1080p от Generalfilm | D 8.04 GB ↑ 0 ↓ 1
2024-06-12 magnet Дюна: Часть вторая / Dune: Part Two (2024) BDRip-HEVC 1080p от RIPS CLUB | D, P, A 14.83 GB ↑ 0 ↓ 2
2024-06-12 magnet Дюна / Dune (2021) BDRip-HEVC 1080p от RIPS CLUB | D, P, L, L2, A 13.93 GB ↑ 0 ↓ 0
2024-05-24 magnet Дюна: Дилогия / Dune: Dilogy (2021-2024) HDRip-AVC | КПК | D 1.36 GB ↑ 0 ↓ 0
2024-05-12 magnet Дюна: Часть вторая / Dune: Part Two (2024) UHD BDRemux 2160p | 4K | HDR10 | Dolby Vision | D, P, A 73.55 GB ↑ 0 ↓ 0
2024-05-10 magnet Дюна: Часть вторая / Dune: Part Two (2024) BDRip 1080p от селезень | D 14.29 GB ↑ 2 ↓ 2
2024-05-07 magnet Дюна: Часть вторая / Dune: Part Two (2024) BDRip-AVC от New-Team | D 2.94 GB ↑ 0 ↓ 0

Кто качает (только для создателя раздачи и модераторов): Локальные пиры отсутствуют

Комментарии


Зарегистрируйтесь чтобы добавить комментарий
Торрент клиент
byTorrent - программа для загрузки торрент-файлов.

Скачать byTorrent.exe (1,5 МБ)

Скачать byTorrent.zip (0,6 МБ)

Поддержи torrent.by
российских рублей
(300 российских рублей это 4$)

Обратная связь rss

End game ©