↑↓torrent.by
Поиск
Логин:  Регистрация
Пароль:

Ночной рейс / Красный глаз / Red Eye [S01] (2024) WEB-DL 720p | RuDub

download Скачать торрент-файл   magnet Магнитная ссылка Размер: 8.26 GB Раздают: 0 Качают: 1 Добавлен: 2024-05-13 17:00
Пиры будут получены из сети DHT
Последний сидер был замечен 2024-05-16 03:38
Информация о фильме Название: Ночной рейс / Красный глаз Оригинальное название: Red Eye Год выхода: 2024 Жанр: Боевик, триллер Режиссер: Кирон Хоукс В ролях: Ричард Армитидж, Цзин Люси, Лесли Шарп, Джемма Мур, Мидо Хамада, Джонатан Арис, Паркер Сойерс, Дан Ли, Томас Чаанинг, Оливер Мальтман, Зои Телфорд, Дэвид Це, Рик Уорден, Питер Гиннесс, Кеван МакКензи О фильме: Офицер лондонской полиции Хана Ли экстрадирует доктора Мэттью Нолана в Пекин, где его обвиняют в преступлении. На борту рейса 357 она сталкивается с развивающимся заговором, в котором количество убийств неуклонно увеличивается. Страна: Великобритания Продолжительность: ~00:45:00 серия Перевод: Любительский (многоголосый закадровый) RuDub Файл Кодек: MKV Качество: WEB-DL 720p Видео: AVC, 1280x720 (16:9), 4000 kbps (0.174 b/px), 25,000 fps Звук: Аудио #1: AC3, 192 kbps (CBR), 48.0 KHz , 2 ch, Russian - RuDub Аудио #2: AAC, 128 kbps (CBR), 48.0 KHz (16 bits), 2 ch, English Субтитры: Английские РЕКЛАМЫ НЕТ
[+] MediaInfoОбщее Уникальный идентификатор : 226199026302067124696485475907780401589 (0xAA2C590A61524D7A2D64EAC656A2D9B5) Полное имя : E:СЕРИАЛЫRed.Eye.S01.720pRed.Eye.S01E01.720p.mkv Формат : Matroska Версия формата : Version 4 Размер файла : 1,37 Гбайт Продолжительность : 45 м. 42 с. Общий поток : 4 282 Кбит/сек Частота кадров : 25,000 кадров/сек Дата кодирования : 2024-05-10 07:36:32 UTC Программа кодирования : mkvmerge v45.0.0 ('Heaven in Pennies') 64-bit Библиотека кодирования : libebml v1.3.10 + libmatroska v1.5.2 Видео Идентификатор : 1 Формат : AVC Формат/Информация : Advanced Video Codec Профиль формата : High@L5.1 Настройки формата : CABAC / 4 Ref Frames Параметр CABAC формата : Да Параметр RefFrames формата : 4 кадра Идентификатор кодека : V_MPEG4/ISO/AVC Продолжительность : 45 м. 42 с. Битрейт : 4 000 Кбит/сек Ширина : 1 280 пикселей Высота : 720 пикселей Соотношение сторон : 16:9 Режим частоты кадров : Постоянный Частота кадров : 25,000 кадров/сек Цветовое пространство : YUV Субдискретизация насыщенности : 4:2:0 Битовая глубина : 8 бит Тип развёртки : Прогрессивная Бит/(Пиксели*Кадры) : 0.174 Размер потока : 1,26 Гбайт (92%) Библиотека кодирования : x264 core 164 r3106 eaa68fa Настройки программы : cabac=1 / ref=3 / deblock=1:0:0 / analyse=0x3:0x113 / me=hex / subme=7 / psy=1 / psy_rd=1.00:0.00 / mixed_ref=1 / me_range=16 / chroma_me=1 / trellis=1 / 8x8dct=1 / cqm=0 / deadzone=21,11 / fast_pskip=1 / chroma_qp_offset=-2 / threads=22 / lookahead_threads=3 / sliced_threads=0 / nr=0 / decimate=1 / interlaced=0 / bluray_compat=0 / constrained_intra=0 / bframes=3 / b_pyramid=2 / b_adapt=1 / b_bias=0 / direct=1 / weightb=1 / open_gop=0 / weightp=2 / keyint=250 / keyint_min=25 / scenecut=40 / intra_refresh=0 / rc_lookahead=40 / rc=abr / mbtree=1 / bitrate=4000 / ratetol=1.0 / qcomp=0.60 / qpmin=0 / qpmax=69 / qpstep=4 / ip_ratio=1.40 / aq=1:1.00 Default : Да Forced : Нет Цветовой диапазон : Limited Основные цвета : BT.709 Характеристики трансфера : BT.709 Коэффициенты матрицы : BT.709 Аудио #1 Идентификатор : 2 Формат : AC-3 Формат/Информация : Audio Coding 3 Коммерческое название : Dolby Digital Идентификатор кодека : A_AC3 Продолжительность : 45 м. 42 с. Вид битрейта : Постоянный Битрейт : 192 Кбит/сек Каналы : 2 канала Channel layout : L R Частота : 48,0 КГц Частота кадров : 31,250 кадров/сек (1536 SPF) Метод сжатия : С потерями Размер потока : 62,8 Мбайт (4%) Заголовок : RuDub Язык : Russian Service kind : Complete Main Default : Да Forced : Нет Аудио #2 Идентификатор : 3 Формат : AAC LC Формат/Информация : Advanced Audio Codec Low Complexity Идентификатор кодека : A_AAC-2 Продолжительность : 45 м. 42 с. Битрейт : 128 Кбит/сек Каналы : 2 канала Channel layout : L R Частота : 48,0 КГц Частота кадров : 46,875 кадров/сек (1024 SPF) Метод сжатия : С потерями Размер потока : 41,8 Мбайт (3%) Язык : English Default : Нет Forced : Нет Текст Идентификатор : 4 Формат : UTF-8 Идентификатор кодека : S_TEXT/UTF8 Идентификатор кодека/Информация : UTF-8 Plain Text Продолжительность : 45 м. 5 с. Битрейт : 55 бит/сек Частота кадров : 0,214 кадр/сек Count of elements : 578 Размер потока : 18,2 Кбайт (0%) Заголовок : English Язык : English Default : Нет Forced : Нет
[+] Скриншоты

Всего файлов в раздаче: 6 
Red.Eye.S01E01.720p.mkv1.37 GB
Red.Eye.S01E02.720p.mkv1.38 GB
Red.Eye.S01E03.720p.mkv1.39 GB
Red.Eye.S01E04.720p.mkv1.37 GB
Red.Eye.S01E05.720p.mkv1.38 GB
Red.Eye.S01E06.720p.mkv1.37 GB

Похожие раздачи по запросу - Ночной
Сегодня magnet Ночной сторож: Демоны передаются по наследству / Nattevagten - Dæmoner går i arv / Nightwatch: Demons Are Forever (2023) HDRip-AVC от New-Team | P, P2 2.36 GB ↑ 0 ↓ 2
2024-05-10 magnet Ночной рейс / Красный глаз / Red Eye [01x01-04 из 06] (2024) WEB-DL 720p | RuDub 5.50 GB ↑ 0 ↓ 0
2024-03-16 magnet Ночной сторож: Демоны передаются по наследству / Nattevagten - Dæmoner går i arv / Nightwatch: Demons Are Forever (2023) BDRip 720p от DoMiNo & селезень | P2 | ViruseProject 4.07 GB ↑ 0 ↓ 2
2024-03-16 magnet Ночной сторож: Демоны передаются по наследству / Nattevagten - Dæmoner går i arv / Nightwatch: Demons Are Forever (2023) BDRip 1080p от селезень | P2 | ViruseProject 9.27 GB ↑ 0 ↓ 0
2024-03-15 magnet Ночной рейд / Topakk (2023) WEB-DLRip | D 747.61 MB ↑ 0 ↓ 0
2024-03-15 magnet Ночной сторож: Демоны передаются по наследству / Nattevagten - Dæmoner går i arv / Nightwatch: Demons Are Forever (2023) BDRip 1080p | ViruseProject 13.43 GB ↑ 1 ↓ 4
2024-03-14 magnet Ночной рейд / Topakk (2023) WEB-DL 1080p от ELEKTRI4KA | D 4.51 GB ↑ 0 ↓ 0

Кто качает (только для создателя раздачи и модераторов):
ПользовательIP:портОтдалПринялОстатокСидируетТоррент клиентОбновился
1 Аноним 144.43.79.37:41193 0.00 B 1.27 GB 7.95 GB нет -qB4390- 14:15 2024-05-24

Комментарии


Зарегистрируйтесь чтобы добавить комментарий
Торрент клиент
byTorrent - программа для загрузки торрент-файлов.

Скачать byTorrent.exe (1,5 МБ)

Скачать byTorrent.zip (0,6 МБ)

Поддержи torrent.by
российских рублей
(300 российских рублей это 4$)

Обратная связь rss

End game ©