↑↓torrent.by
Поиск
Логин:  Регистрация
Пароль:

Министерство неджентльменских дел / The Ministry of Ungentlemanly Warfare (2024) WEB-DL-HEVC 2160p | 4K | SDR | D, P2

download Скачать торрент-файл   magnet Магнитная ссылка Размер: 7.92 GB Добавлен: 2024-05-13 17:00
Пиры будут получены из сети DHT
Последний сидер был замечен 2024-05-18 13:57
Информация о фильме Название: Министерство неджентльменских дел Оригинальное название: The Ministry of Ungentlemanly Warfare Год выхода: 2024 Жанр: боевик, драма, военный, история Режиссер: Гай Ричи В ролях: Генри Кавилл, Тиль Швайгер, Алан Ричсон, Рори Киннер, Генри Голдинг, Фредди Фокс, Эйса Гонсалес, Алекс Петтифер, Бабс Олусанмокун, Кэри Элвес, Хиро Файнс Тиффин О фильме: 1942 год, Великобритания. Они - лучшие из лучших. Отпетые авантюристы и первоклассные спецы, привыкшие действовать в одиночку. Но когда на кону стоит судьба всего мира, им приходится объединиться в сверхсекретное боевое подразделение и отправиться на выполнение дерзкой миссии против нацистов. Теперь их дело - война, и вести они её будут совершенно не по-джентльменски. Страна: США, Великобритания, Турция Студия: Black Bear Pictures, Jerry Bruckheimer Films, Lionsgate Продолжительность: 01:59:57 Перевод: Дублированный (Мосфильм-Мастер), профессиональный двухголосый (Кубик в Кубе) Файл Формат: MKV Качество: WEB-DL-HEVC 2160p | 4K | SDR | Локализованная версия | KP Видео: HEVC/H.265, 3840x1606, ~6757 Kbps Аудио 1: E-AC3, 6 ch, 448 Kbps - Русский (DUB, Мосфильм-Мастер) Аудио 2: E-AC3, 6 ch, 448 Kbps - Русский (DVO, Кубик в Кубе 18+) Аудио 3: E-AC3, 6 ch, 448 Kbps - Русский (Тифлокомментирование) Аудио 4: E-AC3, 6 ch, 448 Kbps - Казахский (DUB, The Kitchen Russia) Аудио 5: E-AC3, 6 ch, 448 Kbps - Узбекский (DUB, The Kitchen Russia) Аудио 6: E-AC3, 6 ch, 448 Kbps - Английский Субтитры: Русские (Forced, Full, SDH), английские (Forced, Full), азербайджанские (Forced, Full), казахские (Forced, Full), узбекские (Forced)
[+] MIGeneral Unique ID : 234051477782015323672170277187751121160 (0xB014ACCA1A5CC857973C5B82E2A21108) Complete name : F:TorrentsThe.Ministry.of.Ungentlemanly.Warfare.2160p.WEB-DL.x265.mkv Format : Matroska Format version : Version 4 File size : 7.92 GiB Duration : 1 h 59 min Overall bit rate : 9 449 kb/s Frame rate : 23.976 FPS Encoded date : 2024-05-12 22:04:50 UTC Writing application : mkvmerge v82.0 ('I'm The President') 64-bit Writing library : libebml v1.4.5 + libmatroska v1.7.1 Video ID : 1 Format : HEVC Format/Info : High Efficiency Video Coding Format profile : Main@L5@High Codec ID : V_MPEGH/ISO/HEVC Duration : 1 h 59 min Bit rate : 6 757 kb/s Width : 3 840 pixels Height : 1 606 pixels Display aspect ratio : 2.39:1 Frame rate mode : Constant Frame rate : 23.976 (24000/1001) FPS Color space : YUV Chroma subsampling : 4:2:0 Bit depth : 8 bits Bits/(Pixel*Frame) : 0.046 Stream size : 5.66 GiB (72%) Writing library : x265 3.5: 8bit+10bit Encoding settings : cpuid=1111039 / frame-threads=5 / wpp / no-pmode / no-pme / no-psnr / no-ssim / log-level=2 / input-csp=1 / input-res=3840x1606 / interlace=0 / total-frames=0 / level-idc=50 / high-tier=1 / uhd-bd=0 / ref=2 / no-allow-non-conformance / no-repeat-headers / annexb / no-aud / no-hrd / info / hash=0 / no-temporal-layers / open-gop / min-keyint=1 / keyint=96 / gop-lookahead=0 / bframes=4 / b-adapt=2 / b-pyramid / bframe-bias=0 / rc-lookahead=96 / lookahead-slices=4 / scenecut=40 / hist-scenecut=0 / radl=0 / no-splice / no-intra-refresh / ctu=64 / min-cu-size=8 / rect / no-amp / max-tu-size=32 / tu-inter-depth=1 / tu-intra-depth=1 / limit-tu=0 / rdoq-level=2 / dynamic-rd=0.00 / no-ssim-rd / signhide / no-tskip / nr-intra=0 / nr-inter=0 / no-constrained-intra / strong-intra-smoothing / max-merge=3 / limit-refs=3 / limit-modes / me=3 / subme=3 / merange=57 / temporal-mvp / no-frame-dup / no-hme / weightp / no-weightb / no-analyze-src-pics / deblock=0:0 / sao / no-sao-non-deblock / rd=4 / selective-sao=4 / no-early-skip / rskip / no-fast-intra / no-tskip-fast / no-cu-lossless / no-b-intra / no-splitrd-skip / rdpenalty=0 / psy-rd=2.00 / psy-rdoq=1.00 / no-rd-refine / no-lossless / cbqpoffs=0 / crqpoffs=0 / rc=crf / crf=21.5 / qcomp=0.60 / qpstep=4 / stats-write=0 / stats-read=0 / vbv-maxrate=100000 / vbv-bufsize=100000 / vbv-init=0.9 / min-vbv-fullness=50.0 / max-vbv-fullness=80.0 / crf-max=0.0 / crf-min=0.0 / ipratio=1.40 / pbratio=1.30 / aq-mode=2 / aq-strength=1.00 / cutree / zone-count=0 / no-strict-cbr / qg-size=32 / no-rc-grain / qpmax=69 / qpmin=0 / no-const-vbv / sar=1 / overscan=0 / videoformat=5 / range=0 / colorprim=1 / transfer=1 / colormatrix=1 / chromaloc=0 / display-window=0 / cll=0,0 / min-luma=0 / max-luma=255 / log2-max-poc-lsb=8 / vui-timing-info / vui-hrd-info / slices=1 / no-opt-qp-pps / no-opt-ref-list-length-pps / no-multi-pass-opt-rps / scenecut-bias=0.05 / hist-threshold=0.03 / no-opt-cu-delta-qp / no-aq-motion / no-hdr10 / no-hdr10-opt / no-dhdr10-opt / no-idr-recovery-sei / analysis-reuse-level=0 / analysis-save-reuse-level=0 / analysis-load-reuse-level=0 / scale-factor=0 / refine-intra=0 / refine-inter=0 / refine-mv=1 / refine-ctu-distortion=0 / no-limit-sao / ctu-info=0 / no-lowpass-dct / refine-analysis-type=0 / copy-pic=1 / max-ausize-factor=1.0 / no-dynamic-refine / no-single-sei / no-hevc-aq / no-svt / no-field / qp-adaptation-range=1.00 / scenecut-aware-qp=0conformance-window-offsets / right=0 / bottom=0 / decoder-max-rate=0 / no-vbv-live-multi-pass Language : English Default : Yes Forced : No Color range : Limited Color primaries : BT.709 Transfer characteristics : BT.709 Matrix coefficients : BT.709 Audio #1 ID : 2 Format : E-AC-3 Format/Info : Enhanced AC-3 Commercial name : Dolby Digital Plus Codec ID : A_EAC3 Duration : 1 h 59 min Bit rate mode : Constant Bit rate : 448 kb/s Channel(s) : 6 channels Channel layout : L R C LFE Ls Rs Sampling rate : 48.0 kHz Frame rate : 31.250 FPS (1536 SPF) Bit depth : 32 bits Compression mode : Lossy Stream size : 384 MiB (5%) Title : МОСФИЛЬМ-МАСТЕР Language : Russian Service kind : Complete Main Default : Yes Forced : No Audio #2 ID : 3 Format : E-AC-3 Format/Info : Enhanced AC-3 Commercial name : Dolby Digital Plus Codec ID : A_EAC3 Duration : 1 h 59 min Bit rate mode : Constant Bit rate : 448 kb/s Channel(s) : 6 channels Channel layout : L R C LFE Ls Rs Sampling rate : 48.0 kHz Frame rate : 31.250 FPS (1536 SPF) Bit depth : 32 bits Compression mode : Lossy Stream size : 384 MiB (5%) Title : Кубик в Кубе (18+) Language : Russian Service kind : Complete Main Default : No Forced : No Audio #3 ID : 4 Format : E-AC-3 Format/Info : Enhanced AC-3 Commercial name : Dolby Digital Plus Codec ID : A_EAC3 Duration : 1 h 59 min Bit rate mode : Constant Bit rate : 448 kb/s Channel(s) : 6 channels Channel layout : L R C LFE Ls Rs Sampling rate : 48.0 kHz Frame rate : 31.250 FPS (1536 SPF) Bit depth : 32 bits Compression mode : Lossy Stream size : 384 MiB (5%) Title : The Kitchen Russia Language : Kazakh Service kind : Complete Main Default : No Forced : No Audio #4 ID : 5 Format : E-AC-3 Format/Info : Enhanced AC-3 Commercial name : Dolby Digital Plus Codec ID : A_EAC3 Duration : 1 h 59 min Bit rate mode : Constant Bit rate : 448 kb/s Channel(s) : 6 channels Channel layout : L R C LFE Ls Rs Sampling rate : 48.0 kHz Frame rate : 31.250 FPS (1536 SPF) Bit depth : 32 bits Compression mode : Lossy Stream size : 384 MiB (5%) Title : The Kitchen Russia Language : Uzbek Service kind : Complete Main Default : No Forced : No Audio #5 ID : 6 Format : E-AC-3 Format/Info : Enhanced AC-3 Commercial name : Dolby Digital Plus Codec ID : A_EAC3 Duration : 1 h 59 min Bit rate mode : Constant Bit rate : 448 kb/s Channel(s) : 6 channels Channel layout : L R C LFE Ls Rs Sampling rate : 48.0 kHz Frame rate : 31.250 FPS (1536 SPF) Bit depth : 32 bits Compression mode : Lossy Stream size : 384 MiB (5%) Title : Аудиодескрипция Language : Russian Service kind : Complete Main Default : No Forced : No Audio #6 ID : 7 Format : E-AC-3 Format/Info : Enhanced AC-3 Commercial name : Dolby Digital Plus Codec ID : A_EAC3 Duration : 1 h 59 min Bit rate mode : Constant Bit rate : 448 kb/s Channel(s) : 6 channels Channel layout : L R C LFE Ls Rs Sampling rate : 48.0 kHz Frame rate : 31.250 FPS (1536 SPF) Bit depth : 32 bits Compression mode : Lossy Stream size : 384 MiB (5%) Language : English Service kind : Complete Main Default : No Forced : No Text #1 ID : 8 Format : UTF-8 Codec ID : S_TEXT/UTF8 Codec ID/Info : UTF-8 Plain Text Duration : 1 h 44 min Bit rate : 5 b/s Frame rate : 0.016 FPS Count of elements : 102 Stream size : 4.59 KiB (0%) Title : "Русские (форсированные)" Language : Russian Default : Yes Forced : No Text #2 ID : 9 Format : UTF-8 Codec ID : S_TEXT/UTF8 Codec ID/Info : UTF-8 Plain Text Duration : 1 h 47 min Bit rate : 88 b/s Frame rate : 0.219 FPS Count of elements : 1409 Stream size : 69.6 KiB (0%) Title : "Русские" Language : Russian Default : No Forced : No Text #3 ID : 10 Format : UTF-8 Codec ID : S_TEXT/UTF8 Codec ID/Info : UTF-8 Plain Text Duration : 1 h 50 min Bit rate : 107 b/s Frame rate : 0.283 FPS Count of elements : 1871 Stream size : 86.8 KiB (0%) Title : "Русские (для слабослышащих)" Language : Russian Default : No Forced : No Text #4 ID : 11 Format : UTF-8 Codec ID : S_TEXT/UTF8 Codec ID/Info : UTF-8 Plain Text Duration : 1 h 49 min Bit rate : 10 b/s Frame rate : 0.023 FPS Count of elements : 151 Stream size : 8.38 KiB (0%) Title : "Казахские (форсированные)" Language : Kazakh Default : No Forced : No Text #5 ID : 12 Format : UTF-8 Codec ID : S_TEXT/UTF8 Codec ID/Info : UTF-8 Plain Text Duration : 1 h 49 min Bit rate : 95 b/s Frame rate : 0.228 FPS Count of elements : 1500 Stream size : 76.8 KiB (0%) Title : "Казахские" Language : Kazakh Default : No Forced : No Text #6 ID : 13 Format : UTF-8 Codec ID : S_TEXT/UTF8 Codec ID/Info : UTF-8 Plain Text Duration : 1 h 49 min Bit rate : 6 b/s Frame rate : 0.021 FPS Count of elements : 135 Stream size : 5.05 KiB (0%) Title : "Азербайджанские (форсированные)" Language : Azerbaijani Default : No Forced : No Text #7 ID : 14 Format : UTF-8 Codec ID : S_TEXT/UTF8 Codec ID/Info : UTF-8 Plain Text Duration : 1 h 49 min Bit rate : 60 b/s Frame rate : 0.226 FPS Count of elements : 1488 Stream size : 48.4 KiB (0%) Title : "Азербайджанские" Language : Azerbaijani Default : No Forced : No Text #8 ID : 15 Format : UTF-8 Codec ID : S_TEXT/UTF8 Codec ID/Info : UTF-8 Plain Text Duration : 1 h 44 min Bit rate : 3 b/s Frame rate : 0.016 FPS Count of elements : 100 Stream size : 2.91 KiB (0%) Title : "Узбекские (форсированные)" Language : Uzbek Default : No Forced : No Text #9 ID : 16 Format : UTF-8 Codec ID : S_TEXT/UTF8 Codec ID/Info : UTF-8 Plain Text Duration : 1 h 40 min Bit rate : 2 b/s Frame rate : 0.012 FPS Count of elements : 70 Stream size : 2.02 KiB (0%) Title : "Английские (форсированные)" Language : English Default : No Forced : No Text #10 ID : 17 Format : UTF-8 Codec ID : S_TEXT/UTF8 Codec ID/Info : UTF-8 Plain Text Duration : 1 h 47 min Bit rate : 56 b/s Frame rate : 0.216 FPS Count of elements : 1387 Stream size : 44.1 KiB (0%) Title : "Английские" Language : English Default : No Forced : No
[+] Скриншоты

Всего файлов в раздаче: 1 
[NOOBDL]The.Ministry.of.Ungentlemanly.Warfare.2160p.WEB-DL.x265.mkv7.92 GB

Похожие раздачи по запросу - Министерство
2024-05-15 magnet Министерство неджентльменских дел / The Ministry of Ungentlemanly Warfare (2024) WEB-DLRip-AVC от ExKinoRay | D, P2 1.07 GB ↑ 0 ↓ 0
2024-05-14 magnet Министерство неджентльменских дел / The Ministry of Ungentlemanly Warfare (2024) UHD WEB-DL-HEVC 2160p | 4K | SDR | D, P2 15.32 GB ↑ 1 ↓ 0
2024-05-14 magnet Министерство неджентльменских дел / The Ministry of Ungentlemanly Warfare (2024) WEB-DL 1080p от Scarabey | D, P2 | Мосфильм-Мастер, Кубик в Кубе, ViruseProject 7.75 GB ↑ 2 ↓ 0
2024-05-14 magnet Министерство неджентльменских дел / The Ministry of Ungentlemanly Warfare (2024) UHD WEB-DL 2160p от Scarabey | 4K | HDR | D, P2 | Мосфильм-мастер, Кубик в кубе 13.99 GB ↑ 0 ↓ 1
2024-05-13 magnet Министерство неджентльменских дел / The Ministry of Ungentlemanly Warfare (2024) WEB-DL-HEVC 2160p | 4K | HDR | D, P2 | Локализованная версия 9.35 GB ↑ 0 ↓ 1
2024-05-13 magnet Министерство неджентльменских дел / The Ministry of Ungentlemanly Warfare (2024) WEB-DLRip-AVC от DoMiNo & селезень | D, P2 | Мосфильм-Мастер, Кубик в Кубе, ViruseProject | Локализованная версия 2.50 GB ↑ 0 ↓ 0
2024-05-13 magnet Министерство неджентльменских дел / The Ministry of Ungentlemanly Warfare (2024) WEB-DLRip 720p от DoMiNo & селезень | D | Мосфильм-Мастер 3.26 GB ↑ 0 ↓ 2

Кто качает (только для создателя раздачи и модераторов): Локальные пиры отсутствуют

Комментарии


Зарегистрируйтесь чтобы добавить комментарий
Торрент клиент
byTorrent - программа для загрузки торрент-файлов.

Скачать byTorrent.exe (1,5 МБ)

Скачать byTorrent.zip (0,6 МБ)

Поддержи torrent.by
российских рублей
(300 российских рублей это 4$)

Обратная связь rss

End game ©