↑↓torrent.by
Поиск
Логин:  Регистрация
Пароль:

Годзилла и Конг: Новая империя / Godzilla x Kong: The New Empire (2024) WEB-DLRip от New-Team | D

download Скачать торрент-файл   magnet Магнитная ссылка Размер: 2.18 GB Раздают: 0 Качают: 1 Добавлен: 2024-05-13 17:00
Пиры будут получены из сети DHT
Последний сидер был замечен 2024-05-15 22:21
Годзилла и Конг: Новая империя / Godzilla x Kong: The New Empire Год выпуска: 2024 Выпущено: США, Австралия / Legendary Pictures, Screen Queensland, Warner Bros. Жанр: фантастика, боевик Режиссер: Адам Вингард / Adam Wingard В ролях: Ребекка Холл, Брайан Тайри Генри, Дэн Стивенс, Кэйли Хоттл, Алекс Фернс, Чэнь Фала, Рэйчел Хаус, Рональд Смик, Чантелл Джемисон, Грег Хаттон О фильме: Два древних титана, Годзилла и Конг, сражаются в эпической битве, пока люди разгадывают их происхождение и связь с тайнами Острова черепа. Продолжительность: 01:54:38 Перевод: Профессиональный (полное дублирование) | Bravo Records Georgia / Movie Dubbing Субтитры: Русские (forced, full), английские Раздача от: Автор релиза: JNS82. Формат: AVI Качество: WEB-DLRip Видео: 720x304 (2.35:1), 23.976 fps, XviD MPEG-4 ~ 2004 kbps avg, 0.382 bit/pixel, build 74 Аудио 1: 48 kHz, AC3 Dolby Digital, 3/2 (L,C,R,l,r) + LFE ch, ~ 256 kbps | RUS | Аудио 2: 48 kHz, AC3 Dolby Digital, 3/2 (L,C,R,l,r) + LFE ch, ~ 448 kbps | ENG |
[+] MediaInfoОбщее Полное имя : D:TorrentsGodzilla.x.Kong.The.New.Empire.2024.2.18.WEB-DLRip_от_New-Team_by_JNS82Godzilla.x.Kong.The.New.Empire.2024.2.18.WEB-DLRip_от_New-Team_by_JNS82.avi Формат : AVI Формат/Информация : Audio Video Interleave Профиль формата : OpenDML Размер файла : 2,18 Гбайт Продолжительность : 1 ч. 54 м. Общий поток : 2 726 Кбит/сек Программа кодирования : VirtualDubMod 1.5.10.2 (build 2540/release) Библиотека кодирования : VirtualDubMod build 2540/release Видео Идентификатор : 0 Формат : MPEG-4 Visual Профиль формата : Advanced Simple@L5 Настройки формата : BVOP1 / Custom Matrix Параметр BVOP формата : 1 Параметр QPel формата : Нет Параметр GMC формата : Без точки перехода Параметр матрицы формата : Выборочная Идентификатор кодека : XVID Идентификатор кодека/Подсказка : XviD Продолжительность : 1 ч. 54 м. Битрейт : 2 004 Кбит/сек Ширина : 720 пикселей Высота : 304 пикселя Соотношение сторон : 2,35:1 Частота кадров : 23,976 (24000/1001) кадра/сек Цветовое пространство : YUV Субдискретизация насыщенности : 4:2:0 Битовая глубина : 8 бит Тип развёртки : Прогрессивная Метод сжатия : С потерями Бит/(Пиксели*Кадры) : 0.382 Размер потока : 1,60 Гбайт (74%) Библиотека кодирования : XviD 74 Аудио #1 Идентификатор : 1 Формат : AC-3 Формат/Информация : Audio Coding 3 Коммерческое название : Dolby Digital Идентификатор кодека : 2000 Продолжительность : 1 ч. 54 м. Вид битрейта : Постоянный Битрейт : 256 Кбит/сек Каналы : 6 каналов Channel layout : L R C LFE Ls Rs Частота : 48,0 КГц Частота кадров : 31,250 кадров/сек (1536 SPF) Метод сжатия : С потерями Размер потока : 210 Мбайт (9%) Выравнивание : Разделение по промежуткам Продолжительность промежутка : 42 мс. (1,00 видеокадр) Время предзагрузки промежутка : 500 мс. Service kind : Complete Main Аудио #2 Идентификатор : 2 Формат : AC-3 Формат/Информация : Audio Coding 3 Коммерческое название : Dolby Digital Идентификатор кодека : 2000 Продолжительность : 1 ч. 54 м. Вид битрейта : Постоянный Битрейт : 448 Кбит/сек Каналы : 6 каналов Channel layout : L R C LFE Ls Rs Частота : 48,0 КГц Частота кадров : 31,250 кадров/сек (1536 SPF) Метод сжатия : С потерями Размер потока : 367 Мбайт (16%) Выравнивание : Разделение по промежуткам Продолжительность промежутка : 42 мс. (1,00 видеокадр) Время предзагрузки промежутка : 500 мс. Service kind : Complete Main

Всего файлов в раздаче: 4 
Godzilla.x.Kong.The.New.Empire.2024.2.18.WEB-DLRip_от_New-Team_by_JNS82.avi2.18 GB
Godzilla.x.Kong.The.New.Empire.2024.2.18.WEB-DLRip_от_New-Team_by_JNS82_[eng].srt67.37 kB
Godzilla.x.Kong.The.New.Empire.2024.2.18.WEB-DLRip_от_New-Team_by_JNS82_forced_[rus].srt5.40 kB
Godzilla.x.Kong.The.New.Empire.2024.2.18.WEB-DLRip_от_New-Team_by_JNS82_full_[rus].srt74.75 kB

Похожие раздачи по запросу - Годзилла
Сегодня magnet Годзилла: Минус один / Gojira -1.0 / Godzilla: Minus One (2023) UHD BDRemux 2160p | 4K | HDR10 | Dolby Vision Profile 7 | P, P2, L 87.71 GB ↑ 0 ↓ 2
Сегодня magnet Годзилла и Конг: Новая империя / Godzilla x Kong: The New Empire (2024) UHD WEB-DL-HEVC 2160p | 4K | Dolby Vision TV | D, P 21.05 GB ↑ 0 ↓ 5
Вчера magnet Годзилла и Конг: Новая империя / Ґодзілла та Конґ: Нова імперія / Godzilla x Kong: The New Empire (2024) WEB-DL-HEVC 2160p | 4K | SDR | D | UKR 12.70 GB ↑ 0 ↓ 3
Вчера magnet Годзилла и Конг: Новая империя / Godzilla x Kong: The New Empire (2024) UHD WEB-DL-HEVC 2160p | 4K | HDR | Dolby Vision Profile 8 | D, P 21.08 GB ↑ 0 ↓ 5
2024-05-16 magnet Годзилла и Конг: Новая империя / Ґодзілла та Конґ: Нова імперія / Godzilla x Kong: The New Empire (2024) WEB-DL-HEVC 2160p | 4K | HDR | D | UKR 16.69 GB ↑ 0 ↓ 2
2024-05-16 magnet Годзилла и Конг: Новая империя / Godzilla x Kong: The New Empire (2024) WEB-DL 1080p от Jaskier | P 8.11 GB ↑ 1 ↓ 13
2024-05-16 magnet Годзилла и Конг: Новая империя / Ґодзілла та Конґ: Нова імперія / Godzilla x Kong: The New Empire (2024) WEB-DL 1080p | D | UKR 8.47 GB ↑ 1 ↓ 3

Кто качает (только для создателя раздачи и модераторов):
ПользовательIP:портОтдалПринялОстатокСидируетТоррент клиентОбновился
1 Аноним 116.236.66.73:37711 2.19 MB 516.54 MB 2.10 GB нет -qB4390- 07:41 2024-05-19

Комментарии


Зарегистрируйтесь чтобы добавить комментарий
Торрент клиент
byTorrent - программа для загрузки торрент-файлов.

Скачать byTorrent.exe (1,5 МБ)

Скачать byTorrent.zip (0,6 МБ)

Поддержи torrent.by
российских рублей
(300 российских рублей это 4$)

Обратная связь rss

End game ©