↑↓torrent.by
Поиск
Логин:  Регистрация
Пароль:

Красавчик / Keinohrhasen (2007) BDRip 1080p от FREEISLAND | D

download Скачать торрент-файл   magnet Магнитная ссылка Размер: 7.92 GB Добавлен: 2024-05-14 05:00
Пиры будут получены из сети DHT
Последний сидер был замечен вчера в 14:52
Красавчик Rabbit Without Ears / Keinohrhasen«Может встретимся?» Год выпуска: 2007 Страна: Германия Жанр: мелодрама, комедия Продолжительность: 01:56:03 Перевод: Профессиональный (дублированный) Субтитры: Russian , German , English (UTF-8) Режиссер: Тиль Швайгер В ролях: Тиль Швайгер / Til Schweiger (Ludo), Нора Чирнер / Nora Tschirner (Anna), Маттиас Швайгхефер / Matthias Schweighofer (Moritz), Алвара Хёфельс / Alwara Hofels (Miriam), Юрген Фогель / Jurgen Vogel (Jurgen Vogel), Армин Роде / Armin Rohde (Bello), Рик Каваниан / Rick Kavanian (Chefredakteur), Вольфганг Штумпф / Wolfgang Stumph (Fieser Taxifahrer), Кристиан Трамиц / Christian Tramitz (Typ), Барбара Рудник / Barbara Rudnik (Lilli) Описание: Журналист Людо, схлопотавший восемь месяцев тюрьмы, освобожден на испытательный срок при условии, что он обязательно пройдет курс трудотерапии. Ему предстоит отработать триста часов в местном детском саду. Как ухаживать за 8-летними оболтусами, Людо не очень представляет, но в группе работает его старая знакомая… Рейтинг MPAA: Лицам до 17 лет обязательно присутствие взрослого Рейтинг ВКИП: для детей старше 16 лет Качество: BDRip 1080p Формат: MKV Видео кодек: H.264 (AVC) Аудио кодеk: AC3 Видео: 1920x816 (2.35:1), 23.976 fps, AVC, 8 685 Kbps Аудио№1: : AC3, 640 Kbps, 48.0 KHz, 6 ch (russian) Аудио #2: AC3, 448 Kbps, 48.0 KHz, 6 ch (german)
[+] МедиаИнфо x264 : frame I:1945 Avg QP:16.13 size:173719 x264 : frame P:36525 Avg QP:18.27 size: 75378 x264 : frame B:128481 Avg QP:21.22 size: 34730 General Unique ID : 184827726923838017053240872808513487427 (0x8B0C867F898C0E70B7896E7579D34243) Complete name : Keinohrhasen(2007)1080p.F-HD.mkv Format : Matroska Format version : Version 4 / Version 2 File size : 7.92 GiB Duration : 1h 56mn Overall bit rate : 9 768 Kbps Movie name : FREEISLAND Encoded date : UTC 2013-04-29 05:22:07 Writing application : mkvmerge v6.2.0 ('Promised Land') built on Apr 28 2013 12:22:01 Writing library : libebml v1.3.0 + libmatroska v1.4.0 Video ID : 1 Format : AVC Format/Info : Advanced Video Codec Format profile : High@L4.1 Format settings, CABAC : Yes Format settings, ReFrames : 4 frames Codec ID : V_MPEG4/ISO/AVC Bit rate : 8 685 Kbps Width : 1 920 pixels Height : 816 pixels Display aspect ratio : 2.35:1 Frame rate mode : Variable Original frame rate : 23.976 fps Color space : YUV Chroma subsampling : 4:2:0 Bit depth : 8 bits Scan type : Progressive Bits/(Pixel*Frame) : 0.231 Writing library : x264 core 132 r2309kMod 3b1f1f7 Encoding settings : cabac=1 / ref=4 / deblock=1:-3:-3 / analyse=0x3:0x113 / me=umh / subme=11 / psy=1 / fade_compensate=0.00 / psy_rd=0.90:0.00 / mixed_ref=1 / me_range=48 / chroma_me=1 / trellis=2 / 8x8dct=1 / cqm=0 / deadzone=21,11 / fast_pskip=0 / chroma_qp_offset=-2 / threads=6 / lookahead_threads=1 / sliced_threads=0 / nr=0 / decimate=1 / interlaced=0 / bluray_compat=0 / constrained_intra=0 / bframes=8 / b_pyramid=2 / b_adapt=2 / b_bias=0 / direct=3 / weightb=1 / open_gop=0 / weightp=2 / keyint=250 / keyint_min=23 / scenecut=40 / intra_refresh=0 / rc_lookahead=40 / rc=2pass / mbtree=0 / bitrate=8685 / ratetol=1.0 / qcomp=0.75 / qpmin=0 / qpmax=69 / qpstep=4 / cplxblur=20.0 / qblur=0.5 / vbv_maxrate=50000 / vbv_bufsize=62500 / nal_hrd=none / ip_ratio=1.40 / pb_ratio=1.30 / aq=1:0.80 Language : English Default : Yes Forced : No Color primaries : BT.709 Transfer characteristics : BT.709 Matrix coefficients : BT.709 Audio #1 ID : 2 Format : AC-3 Format/Info : Audio Coding 3 Mode extension : CM (complete main) Format settings, Endianness : Big Codec ID : A_AC3 Duration : 1h 56mn Bit rate mode : Constant Bit rate : 640 Kbps Channel(s) : 6 channels Channel positions : Front: L C R, Side: L R, LFE Sampling rate : 48.0 KHz Bit depth : 16 bits Compression mode : Lossy Stream size : 531 MiB (7%) Language : Russian Default : Yes Forced : No Audio #2 ID : 3 Format : AC-3 Format/Info : Audio Coding 3 Mode extension : CM (complete main) Format settings, Endianness : Big Codec ID : A_AC3 Duration : 1h 56mn Bit rate mode : Constant Bit rate : 448 Kbps Channel(s) : 6 channels Channel positions : Front: L C R, Side: L R, LFE Sampling rate : 48.0 KHz Bit depth : 16 bits Compression mode : Lossy Stream size : 372 MiB (5%) Language : German Default : No Forced : No Text #1 ID : 4 Format : UTF-8 Codec ID : S_TEXT/UTF8 Codec ID/Info : UTF-8 Plain Text Language : Russian Default : No Forced : No Text #2 ID : 5 Format : UTF-8 Codec ID : S_TEXT/UTF8 Codec ID/Info : UTF-8 Plain Text Language : German Default : No Forced : No Text #3 ID : 6 Format : UTF-8 Codec ID : S_TEXT/UTF8 Codec ID/Info : UTF-8 Plain Text Language : English Default : No Forced : No Menu 00:00:00.000 : en:00:00:00.000 00:10:12.737 : en:00:10:12.737 00:20:15.964 : en:00:20:15.964 00:32:12.305 : en:00:32:12.305 00:42:25.543 : en:00:42:25.543 00:48:26.820 : en:00:48:26.820 01:01:25.264 : en:01:01:25.264 01:12:17.875 : en:01:12:17.875 01:23:21.246 : en:01:23:21.246 01:33:19.135 : en:01:33:19.135 01:44:52.744 : en:01:44:52.744 01:46:22.918 : en:01:46:22.918
[+] Знаете ли Вы, что...★ Все четверо детей Тиля Швайгера появляются на экране в небольших ролях. Двенадцатилетний сын Валентин Флориан Швайгер играет юного Людо, десятилетняя Луна Швайгер — юную Анну, девятилетняя Лили Швайгер — девочку с кепкой и младшая дочь, пятилетняя Эмма Швайгер — Чейенн Блю. ★ Первоначально в Германии фильм получил мягкий рейтинг 6 (не рекомендуется детям до 6 лет), однако, многочисленные протесты родителей, пришедших на сеансы с маленькими детьми, поддержанные видными общественными и политическими деятелями, вынудили пересмотр этого решения. В результате с 1 февраля 2008 года, после почти полутора месяцев проката, фильму был присвоен рейтинг 12 (дети до 12 лет допускаются только в сопровождении родителей). ★ Сцены с участием Юргена Фогеля и Норы Чирнер на красной дорожке во время церемонии German Film Awards были сняты на реальной церемонии вручения этой самой престижной награды немецкого кинематографа, состоявшейся 4 мая 2007 года в Берлине. ★ Съёмки фильма проходили с 10 марта по 23 мая 2007 года в Берлине. ★ Карьера режиссера и исполнителя главной роли Тиля Швайгера начиналась с озвучивания порнофильмов. В одной из сцен фильма главный герой смотрит и синхронно повторяет слова вслед за порно в реальности озвученное самим Тилем в начале карьеры. ★ В сцене, где Анна и Юрген сидят на скамейке у озера, Юрген предлагает Анне купить мороженое. Далее следует обсуждение, какое именно мороженое выберет Анна. Аналогичный разговор происходит между Ником и Лейлой в фильме «Босиком по мостовой» (2005). Режиссером которого тоже является Тиль Швайгер.
[+] Скриншоты
Релиз от:

Всего файлов в раздаче: 1 
Keinohrhasen(2007)1080p.F-HD.mkv7.92 GB

Похожие раздачи по запросу - Красавчик
2024-05-14 magnet Красавчик 2 / Rabbit Without Ears 2 / Zweiohrkuken (2009) BDRip 1080p от FREEISLAND 7.95 GB ↑ 0 ↓ 0

Кто качает (только для создателя раздачи и модераторов): Локальные пиры отсутствуют

Комментарии


Зарегистрируйтесь чтобы добавить комментарий
Торрент клиент
byTorrent - программа для загрузки торрент-файлов.

Скачать byTorrent.exe (1,5 МБ)

Скачать byTorrent.zip (0,6 МБ)

Поддержи torrent.by
российских рублей
(300 российских рублей это 4$)

Обратная связь rss

End game ©