↑↓torrent.by
Поиск
Логин:  Регистрация
Пароль:

Любовь и сёрфинг / Под настилом / Under the Boardwalk (1988) BDRip | P

download Скачать торрент-файл   magnet Магнитная ссылка Размер: 1.46 GB Добавлен: 2024-05-14 05:00
Пиры будут получены из сети DHT
Последний сидер был замечен 2024-05-14 05:00
Страна: США Жанр: мелодрама, комедия Год выпуска: 1989 Продолжительность: 01:43:12 Перевод: Профессиональный (многоголосый закадровый) Варус Видео Субтитры: нет Режиссер: Фриц Кирш / Fritz Kiersch В ролях: Кит Куган, Даниэль фон Цернек, Ричард Джозеф Пол, Стив Монарке, Роксана Зэл, Хантер фон Лир, Брайан Уиммер, Стюарт Фрэткин, Бретт Маркс, Кристофер Райделл Описание: Ник Рейнвуд и Элли Йорпин - современные Ромео и Джульетта, живущие в южной Калифорнии, разрываемые непреодолимыми противоречиями из их прошлой жизни, верностью к их компашкам и их собственными желаниями. Релиз от: Райдэн Качество видео: BDRip Формат видео: AVI Видео: 720x400 (1.80:1), 23.976 fps, XviD build 73 ~1827 kbps avg, 0.26 bit/pixel Аудио: 48 kHz, AC3 Dolby Digital, 2/0 (L,R) ch, ~192 kbps
[+] MediaInfo General Complete name : C:ИгрыUnder.the.Boardwalk.1988.BDRip.Райдэн.avi Format : AVI Format/Info : Audio Video Interleave Format settings : BitmapInfoHeader / WaveFormatEx File size : 1.46 GiB Duration : 1 h 43 min Overall bit rate : 2 029 kb/s Frame rate : 23.976 FPS Writing application : VirtualDubMod 1.5.10.3 | www.virtualdub-fr.org || (build 2550/release) Writing library : VirtualDubMod build 2550/release Video ID : 0 Format : MPEG-4 Visual Format profile : Advanced Simple@L5 Format settings : BVOP1 / Custom Matrix Format settings, BVOP : 1 Format settings, QPel : No Format settings, GMC : No warppoints Format settings, Matrix : Custom Codec ID : XVID Codec ID/Hint : XviD Duration : 1 h 43 min Bit rate : 1 828 kb/s Width : 720 pixels Height : 400 pixels Display aspect ratio : 16:9 Frame rate : 23.976 (24000/1001) FPS Color space : YUV Chroma subsampling : 4:2:0 Bit depth : 8 bits Scan type : Progressive Compression mode : Lossy Bits/(Pixel*Frame) : 0.265 Stream size : 1.32 GiB (90%) Writing library : XviD 73 Audio ID : 1 Format : AC-3 Format/Info : Audio Coding 3 Commercial name : Dolby Digital Codec ID : 2000 Duration : 1 h 43 min Bit rate mode : Constant Bit rate : 192 kb/s Channel(s) : 2 channels Channel layout : L R Sampling rate : 48.0 kHz Frame rate : 31.250 FPS (1536 SPF) Compression mode : Lossy Stream size : 142 MiB (9%) Alignment : Split across interleaves Interleave, duration : 42 ms (1.00 video frame) Interleave, preload duration : 500 ms Service kind : Complete Main
[+] Скриншоты

Всего файлов в раздаче: 1 
Under.the.Boardwalk.1988.BDRip.Райдэн.avi1.46 GB

Похожие раздачи по запросу - Любовь
2024-05-20 magnet Запретная любовь / The Edge of Love (2008) BDRip-AVC от msltel | P, P2 3.51 GB ↑ 0 ↓ 0
2024-05-13 magnet Полина Аронсон - Любовь: сделай сам. Как мы стали менеджерами своих чувств (2020) FB2, EPUB, PDF 3.63 MB ↑ 0 ↓ 0
2024-05-12 magnet Mama Russia - Любовь, комсомол и роботы (2024) FLAC 345.90 MB ↑ 0 ↓ 0
2024-05-08 magnet Любовь на миллион / The Modelizer / Hong Kong Love Story (2023) WEB-DLRip от New-Team | D 1.46 GB ↑ 0 ↓ 0
2024-05-04 magnet Любовь истекает кровью / Love Lies Bleeding (2024) WEB-DL 1080p от New-Team | D, L | Soundmasters 7.68 GB ↑ 0 ↓ 1
2024-05-03 magnet Вечная любовь [S01] (2024) WEB-DLRip от Generalfilm | КПК 741.54 MB ↑ 0 ↓ 0
2024-05-02 magnet Любовь Бросалина - Энциклопедия-путеводитель для детей. Крым (2023) PDF 83.53 MB ↑ 0 ↓ 0

Кто качает (только для создателя раздачи и модераторов): Локальные пиры отсутствуют

Комментарии


Зарегистрируйтесь чтобы добавить комментарий
Торрент клиент
byTorrent - программа для загрузки торрент-файлов.

Скачать byTorrent.exe (1,5 МБ)

Скачать byTorrent.zip (0,6 МБ)

Поддержи torrent.by
российских рублей
(300 российских рублей это 4$)

Обратная связь rss

End game ©