↑↓torrent.by
Поиск
Логин:  Регистрация
Пароль:

Жизнь вверх ногами / Life Upside Down / Seven Weeks In (2023) WEB-DLRip от New-Team | D | Баритон

download Скачать торрент-файл   magnet Магнитная ссылка Размер: 1.46 GB Добавлен: 2024-05-14 05:00
Пиры будут получены из сети DHT
Последний сидер был замечен 2024-05-21 06:55
Жизнь вверх ногами / Life Upside Down / Seven Weeks In Год выпуска: 2023 Выпущено: США, AGA FILMS, Euphoria Productions Жанр: Комедия Режиссер: Сесилия Миниукки / Cecilia Miniucchi В ролях: Боб Оденкёрк, Рада Митчелл, Дэнни Хьюстон, Рози Феллнер, Сайрус Пехлеви, Теренс Берни Хайнс, Джини Лим, Соня Ирис Лозада, Карло Алакки, Криспиан Белфрадж О фильме: Чтобы сохранить дружеские отношения, нескольким жителям Лос-Анджелеса придётся взглянуть в глаза своим страхам и изгнать ложь из своих жизней. Продолжительность: 01:32:03 Перевод: Профессиональный (полное дублирование) | Баритон Субтитры: Нет. Раздача от: Автор релиза: JNS82. Формат: AVI Качество: WEB-DLRip Видео: 704x400 (16:9), 24.000 fps, XviD MPEG-4 ~ 1881 kbps avg, 0.278 bit/pixel, build 73 Аудио: 48 kHz, AC3 Dolby Digital, 3/2 (L,C,R,l,r) + LFE ch, ~ 384 kbps | RUS |
[+] MediaInfoОбщее Полное имя : D:TorrentsLife.Upside.Down.2023.WEB-DLRip_от New-Team_by_JNS82.avi Формат : AVI Формат/Информация : Audio Video Interleave Размер файла : 1,46 Гбайт Продолжительность : 1 ч. 32 м. Общий поток : 2 274 Кбит/сек Программа кодирования : VirtualDubMod 1.5.10.2 (build 2540/release) Библиотека кодирования : VirtualDubMod build 2540/release Видео Идентификатор : 0 Формат : MPEG-4 Visual Профиль формата : Advanced Simple@L5 Настройки формата : BVOP1 / Custom Matrix Параметр BVOP формата : 1 Параметр QPel формата : Нет Параметр GMC формата : Без точки перехода Параметр матрицы формата : Выборочная Идентификатор кодека : XVID Идентификатор кодека/Подсказка : XviD Продолжительность : 1 ч. 32 м. Битрейт : 1 881 Кбит/сек Ширина : 704 пикселя Высота : 400 пикселей Соотношение сторон : 16:9 Частота кадров : 24,000 кадра/сек Цветовое пространство : YUV Субдискретизация насыщенности : 4:2:0 Битовая глубина : 8 бит Тип развёртки : Прогрессивная Метод сжатия : С потерями Бит/(Пиксели*Кадры) : 0.278 Размер потока : 1,21 Гбайт (83%) Библиотека кодирования : XviD 73 Аудио Идентификатор : 1 Формат : AC-3 Формат/Информация : Audio Coding 3 Коммерческое название : Dolby Digital Идентификатор кодека : 2000 Продолжительность : 1 ч. 32 м. Вид битрейта : Постоянный Битрейт : 384 Кбит/сек Каналы : 6 каналов Channel layout : L R C LFE Ls Rs Частота : 48,0 КГц Частота кадров : 31,250 кадров/сек (1536 SPF) Метод сжатия : С потерями Размер потока : 253 Мбайт (17%) Выравнивание : Разделение по промежуткам Продолжительность промежутка : 42 мс. (1,00 видеокадр) Время предзагрузки промежутка : 500 мс. Service kind : Complete Main

Всего файлов в раздаче: 1 
Life.Upside.Down.2023.WEB-DLRip_от New-Team_by_JNS82.avi1.46 GB

Похожие раздачи по запросу - Жизнь
2024-06-13 magnet Жизнь отдам / Can Feda (2018) WEB-DLRip от MegaPeer | P 1.46 GB ↑ 0 ↓ 0
2024-06-12 magnet Наука и жизнь [01-12] (2023) PDF 308.61 MB ↑ 0 ↓ 0
2024-06-12 magnet Беззаботная жизнь в ином мире с читерскими способностями со второго уровня / Lv2 kara Cheat datta Moto Yuusha Kouho no Mattari Isekai Life [01x01-10 из 12] (2024) WEBRip 1080p by VLDeshka | L | DreamCast 5.87 GB ↑ 0 ↓ 0
2024-06-12 magnet Жизнь после борьбы / Life After Fighting (2024) WEB-DLRip-AVC | L 2.66 GB ↑ 15 ↓ 0
2024-06-08 magnet Наука и жизнь №06 (Июнь) (2024) PDF 31.75 MB ↑ 0 ↓ 0
2024-06-03 magnet Одна жизнь / One Life (2023) HDRip-AVC | КПК | D, L2 700.07 MB ↑ 0 ↓ 0
2024-05-25 magnet Одна жизнь / One Life (2023) BDRip 1080p от Generalfilm | D 10.24 GB ↑ 0 ↓ 0

Комментарии


Зарегистрируйтесь чтобы добавить комментарий
Торрент клиент
byTorrent - программа для загрузки торрент-файлов.

Скачать byTorrent.exe (1,5 МБ)

Скачать byTorrent.zip (0,6 МБ)

Поддержи torrent.by
российских рублей
(300 российских рублей это 4$)

Обратная связь rss

End game ©