↑↓torrent.by
Поиск
Логин:  Регистрация
Пароль:

Жизнь вверх ногами / Life Upside Down / Seven Weeks In (2023) WEB-DLRip от ExKinoRay | D

download Скачать торрент-файл   magnet Магнитная ссылка Размер: 744.35 MB Добавлен: 2024-05-14 05:00
Пиры будут получены из сети DHT
Последний сидер был замечен 2024-05-16 14:39
Информация о фильме Название: Жизнь вверх ногами Оригинальное название: Life Upside Down / Seven Weeks In Год выхода: 2023 Жанр: комедия Режиссер: Сесилия Миниукки В ролях: Боб Оденкёрк, Рада Митчелл, Дэнни Хьюстон, Рози Феллнер, Сайрус Пехлеви, Теренс Берни Хайнс, Джини Лим, Соня Ирис Лозада, Карло Алакки, Криспиан Белфрадж О фильме: Чтобы сохранить дружеские отношения, нескольким жителям Лос-Анджелеса придётся взглянуть в глаза своим страхам и изгнать ложь из своих жизней..... Страна: США Студия: AGA FILMS, Euphoria Productions Продолжительность: 01:32:03 Перевод: Профессиональный дублированный Файл Кодек: XviD Качество: WEB-DLRip Видео: 624x352 (1.77:1), 24 fps, XviD build 67 ~990 kbps avg, 0.19 bit/pixel Звук: 48 kHz, MP3, 2 ch, 128 kbps avg Субтитры: Отсутствуют
[+] MediaInfoGeneral Complete name : D:Жизнь вверх ногами.2023.WEB-DLRip.ExKinoRay.avi Format : AVI Format/Info : Audio Video Interleave Format settings : BitmapInfoHeader / WaveFormatEx File size : 744 MiB Duration : 1 h 32 min Overall bit rate : 1 130 kb/s Frame rate : 24.000 FPS Writing application : Lavf58.29.100 Video ID : 0 Format : MPEG-4 Visual Format profile : Advanced Simple@L5 Format settings : BVOP1 / Custom Matrix Format settings, BVOP : 1 Format settings, QPel : No Format settings, GMC : No warppoints Format settings, Matrix : Custom Codec ID : XVID Codec ID/Hint : XviD Duration : 1 h 32 min Bit rate : 990 kb/s Width : 624 pixels Height : 352 pixels Display aspect ratio : 16:9 Frame rate : 24.000 FPS Color space : YUV Chroma subsampling : 4:2:0 Bit depth : 8 bits Scan type : Progressive Compression mode : Lossy Bits/(Pixel*Frame) : 0.188 Stream size : 652 MiB (88%) Writing library : XviD 67 Audio ID : 1 Format : MPEG Audio Format version : Version 1 Format profile : Layer 3 Format settings : Joint stereo Codec ID : 55 Codec ID/Hint : MP3 Duration : 1 h 32 min Bit rate mode : Constant Bit rate : 128 kb/s Channel(s) : 2 channels Sampling rate : 48.0 kHz Compression mode : Lossy Stream size : 84.3 MiB (11%) Alignment : Aligned on interleaves Interleave, duration : 24 ms (0.58 video frame) Writing library : LAME3.10Hñ»y4{;
[+] Скриншоты
Релиз от: Рип изготовил:

Всего файлов в раздаче: 1 
Жизнь вверх ногами.2023.WEB-DLRip.ExKinoRay.avi744.35 MB

Похожие раздачи по запросу - Жизнь
2024-05-14 magnet Жизнь вверх ногами / Life Upside Down / Seven Weeks In (2023) WEB-DLRip от New-Team | D | Баритон 1.46 GB ↑ 1 ↓ 0
2024-05-13 magnet Жизнь вверх ногами / Life Upside Down / Seven Weeks In (2023) WEB-DL 1080p от ExKinoRay | D 6.61 GB ↑ 0 ↓ 3
2024-05-13 magnet Новая жизнь / New Life (2023) WEB-DLRip от New-Team | P | TVShows 1.46 GB ↑ 0 ↓ 1
2024-05-13 magnet Новая жизнь / New Life (2023) WEB-DL 1080p от New-Team | P | TVShows 5.07 GB ↑ 3 ↓ 3
2024-05-13 magnet Новая жизнь / New Life (2023) WEB-DL 720p от селезень | P | TVShows 2.33 GB ↑ 0 ↓ 1
2024-05-09 magnet Алексей Осадчук - Последняя жизнь 4. Пламя Севера (2024) MP3 248.27 MB ↑ 0 ↓ 0
2024-05-09 magnet Одна жизнь / One Life (2023) WEB-DL 1080p от EniaHD | D 4.93 GB ↑ 1 ↓ 2

Кто качает (только для создателя раздачи и модераторов): Локальные пиры отсутствуют

Комментарии


Зарегистрируйтесь чтобы добавить комментарий
Торрент клиент
byTorrent - программа для загрузки торрент-файлов.

Скачать byTorrent.exe (1,5 МБ)

Скачать byTorrent.zip (0,6 МБ)

Поддержи torrent.by
российских рублей
(300 российских рублей это 4$)

Обратная связь rss

End game ©