↑↓torrent.by
Поиск
Логин:  Регистрация
Пароль:

Кажется, мы остались одни / I Think We're Alone Now (2018) BDRip 1080p | P, A

download Скачать торрент-файл   magnet Магнитная ссылка Размер: 7.82 GB Раздают: 1 Качают: 0 Добавлен: 2024-05-14 05:00
Пиры будут получены из сети DHT
Последний сидер был замечен сегодня в 07:10
Информация о фильме Название: Кажется, мы остались одни Оригинальное название: I Think We're Alone Now Год выхода: 2018 Жанр: Фантастика, драма, детектив Режиссер: Рид Морано В ролях: Питер Динклэйдж, Элль Фэннинг, Шарлотта Генсбур, Пол Джаматти О фильме: Действие разворачивается в пост-апокалитическом мире, где в опустевшем городке живет единственный выживший человек - Дел. Мужчина рад своему одиночеству, потому как чувствовал себя более одиноким до того, как все умерли. В прошлом он был окружен людьми, которые относились к нему как к неудачнику, но сейчас всё полностью изменилось, и его жизнь протекает спокойно и скоординировано. Но совершенно неожиданно в городе появляется Грейс. Незнакомка не только мешает Делу довольствоваться жизнью, которую тот создавал для себя, но и планирует остаться. Страна: США Студия: Automatik Entertainment, Estuary Films, Exhibit, Ferrotame Films Продолжительность: 01:39:09 Перевод 1: Профессиональный (многоголосый, закадровый) | HDRezka Studio Перевод 2: Авторский (одноголосый, закадровый) | А. Важенин (BadBajo) Файл Формат: MKV Качество: BDRip 1080p Видео: MPEG-4 AVC, 1920x804 (2.40:1), 23.976 fps, ~ 9816 Kbps Аудио 1: AC3, 5.1 ch, 48.0 kHz, 448 kbps | MVO, HDRezka Studio Аудио 2: AC3, 5.1 ch, 48.0 kHz, 384 kbps | AVO, А. Важенин Аудио 3: AC3, 5.1 ch, 48.0 kHz, 640 kbps | Original Субтитры: Русские (Forced, Full), английские
[+] Скриншоты
[+] MI/x264General Unique ID : 230580641895588503501818274404239925665 (0xAD78375E466F36F5931EFEEA6097E1A1) Complete name : I.Think.Were.Alone.Now.2018.BDRip.1080p.mkv Format : Matroska Format version : Version 4 File size : 7.82 GiB Duration : 1 h 39 min Overall bit rate : 11.3 Mb/s Encoded date : UTC 2024-05-12 21:28:44 Writing application : mkvmerge v7.3.0 ('Nouages') 64bit built on Oct 22 2014 18:53:34 Writing library : libebml v1.3.0 + libmatroska v1.4.1 Video ID : 1 Format : AVC Format/Info : Advanced Video Codec Format profile : High@L4.1 Format settings : CABAC / 5 Ref Frames Format settings, CABAC : Yes Format settings, Reference frames : 5 frames Codec ID : V_MPEG4/ISO/AVC Duration : 1 h 39 min Bit rate : 9 816 kb/s Width : 1 920 pixels Height : 804 pixels Display aspect ratio : 2.40:1 Frame rate mode : Constant Frame rate : 23.976 (24000/1001) FPS Color space : YUV Chroma subsampling : 4:2:0 Bit depth : 8 bits Scan type : Progressive Bits/(Pixel*Frame) : 0.265 Stream size : 6.80 GiB (87%) Writing library : x264 core 164 r3186+62M 5e8a29f t_mod_New Encoding settings : cabac=1 / ref=5 / deblock=1:-3:-3 / analyse=0x3:0x133 / me=umh / subme=11 / psy=1 / fade_compensate=0.00 / psy_rd=1.03:0.05 / mixed_ref=1 / me_range=32 / chroma_me=1 / trellis=2 / 8x8dct=1 / cqm=0 / deadzone=21,11 / fast_pskip=0 / chroma_qp_offset=-3 / threads=17 / lookahead_threads=3 / sliced_threads=0 / nr=0 / decimate=0 / interlaced=0 / bluray_compat=0 / constrained_intra=0 / fgo=0 / bframes=10 / b_pyramid=2 / b_adapt=2 / b_bias=0 / direct=1 / weightb=1 / open_gop=0 / weightp=2 / keyint=240 / keyint_min=23 / scenecut=40 / intra_refresh=0 / rc_lookahead=60 / rc=crf / mbtree=0 / crf=19.2000 / qcomp=0.60 / qpmin=0:0:0 / qpmax=69:69:69 / qpstep=4 / vbv_maxrate=50000 / vbv_bufsize=62500 / crf_max=0.0 / nal_hrd=none / filler=0 / ip_ratio=1.40 / pb_ratio=1.30 / aq=3:0.80 / aq-sensitivity=10.00 / aq-factor=1.00:1.00:1.00:1.00 / aq2=0 / aq3=0 Language : English Default : Yes Forced : No Color range : Limited Color primaries : BT.709 Transfer characteristics : BT.709 Matrix coefficients : BT.709 Audio #1 ID : 2 Format : AC-3 Format/Info : Audio Coding 3 Commercial name : Dolby Digital Codec ID : A_AC3 Duration : 1 h 39 min Bit rate mode : Constant Bit rate : 448 kb/s Channel(s) : 6 channels Channel layout : L R C LFE Ls Rs Sampling rate : 48.0 kHz Frame rate : 31.250 FPS (1536 SPF) Compression mode : Lossy Stream size : 318 MiB (4%) Title : MVO (HDRezka Studio) Language : Russian Service kind : Complete Main Default : Yes Forced : No Audio #2 ID : 3 Format : AC-3 Format/Info : Audio Coding 3 Commercial name : Dolby Digital Codec ID : A_AC3 Duration : 1 h 39 min Bit rate mode : Constant Bit rate : 384 kb/s Channel(s) : 6 channels Channel layout : L R C LFE Ls Rs Sampling rate : 48.0 kHz Frame rate : 31.250 FPS (1536 SPF) Compression mode : Lossy Stream size : 272 MiB (3%) Title : AVO (Важенин) Language : Russian Service kind : Complete Main Default : No Forced : No Audio #3 ID : 4 Format : AC-3 Format/Info : Audio Coding 3 Commercial name : Dolby Digital Codec ID : A_AC3 Duration : 1 h 39 min Bit rate mode : Constant Bit rate : 640 kb/s Channel(s) : 6 channels Channel layout : L R C LFE Ls Rs Sampling rate : 48.0 kHz Frame rate : 31.250 FPS (1536 SPF) Compression mode : Lossy Stream size : 454 MiB (6%) Title : Original Language : English Service kind : Complete Main Default : No Forced : No Text #1 ID : 5 Format : UTF-8 Codec ID : S_TEXT/UTF8 Codec ID/Info : UTF-8 Plain Text Duration : 1 h 37 min Bit rate : 0 b/s Count of elements : 12 Stream size : 582 Bytes (0%) Title : Forced Language : Russian Default : No Forced : No Text #2 ID : 6 Format : UTF-8 Codec ID : S_TEXT/UTF8 Codec ID/Info : UTF-8 Plain Text Duration : 1 h 31 min Bit rate : 29 b/s Count of elements : 450 Stream size : 19.5 KiB (0%) Title : Full Language : Russian Default : No Forced : No Text #3 ID : 7 Format : UTF-8 Codec ID : S_TEXT/UTF8 Codec ID/Info : UTF-8 Plain Text Duration : 1 h 18 min Bit rate : 22 b/s Count of elements : 458 Stream size : 12.7 KiB (0%) Title : Full Language : English Default : No Forced : No Text #4 ID : 8 Format : UTF-8 Codec ID : S_TEXT/UTF8 Codec ID/Info : UTF-8 Plain Text Duration : 1 h 32 min Bit rate : 23 b/s Count of elements : 547 Stream size : 15.7 KiB (0%) Title : SDH Language : English Default : No Forced : No Menu 00:00:00.000 : en:Chapter 01 00:04:48.580 : en:Chapter 02 00:10:57.407 : en:Chapter 03 00:17:14.450 : en:Chapter 04 00:23:01.755 : en:Chapter 05 00:29:39.403 : en:Chapter 06 00:36:45.787 : en:Chapter 07 00:43:04.707 : en:Chapter 08 00:48:05.800 : en:Chapter 09 00:53:10.938 : en:Chapter 10 00:59:09.921 : en:Chapter 11 01:05:52.073 : en:Chapter 12 01:11:50.348 : en:Chapter 13 01:18:23.157 : en:Chapter 14 01:26:04.576 : en:Chapter 15 01:33:41.616 : en:Chapter 16 x264 : frame I:866 Avg QP:15.59 size: 164528 x264 : frame P:25627 Avg QP:17.47 size: 98071 x264 : frame B:116139 Avg QP:19.56 size: 39981

Всего файлов в раздаче: 1 
I.Think.Were.Alone.Now.2018.BDRip.1080p.mkv7.82 GB

Кто качает (только для создателя раздачи и модераторов):
ПользовательIP:портОтдалПринялОстатокСидируетТоррент клиентОбновился
1 Аноним 109.252.154.108:51413 4.33 GB 0.00 B 0.00 B да -TR2820- 07:10 2024-05-19

Комментарии


Зарегистрируйтесь чтобы добавить комментарий
Торрент клиент
byTorrent - программа для загрузки торрент-файлов.

Скачать byTorrent.exe (1,5 МБ)

Скачать byTorrent.zip (0,6 МБ)

Поддержи torrent.by
российских рублей
(300 российских рублей это 4$)

Обратная связь rss

End game ©