↑↓torrent.by
Поиск
Логин:  Регистрация
Пароль:

Без границ / Den grænseløse / Boundless (2024) WEB-DLRip от New-Team | P2 | ViruseProject

download Скачать торрент-файл   magnet Магнитная ссылка Размер: 1.46 GB Добавлен: 2024-05-14 05:00
Пиры будут получены из сети DHT
Последний сидер был замечен 2024-06-15 11:41
Без границ / Den grænseløse / Boundless Год выпуска: 2024 Выпущено: Дания / Det Danske Filminstitut, Eesti Filmi Sihtasutus, Hyæne Film, Münchhausen Productions, Nadcon Film, Nordisk Film Production, TV2 Danmark, TV2 Norge, Zweites Deutsches Fernsehen (ZDF) Жанр: триллер, криминал Режиссер: Оле Кристиан Мадсен / Ole Christian Madsen В ролях: Хедда Штайнстед, Ульрих Томсен, Хоаким Фьелструп, Сёрен Маллинг, Кен Ведсегор, Петер Мюгинд, Хелли Факрайд, Мари Бода, Марина Бурас, Лиза Карлехед О фильме: Карл Мёрк из полиции Копенгагена отправляет коллегу Розе на остров Борнхольм на встречу со своим старым другом, местным полицейским. Тот много лет одержим расследованием странного убийства Альберте, талантливой студентки народной школы. Розе и Карл оказываются вовлечены в это непростое дело, для обоих оно становится болезненным возвращением в прошлое... Продолжительность: 02:01:05 Перевод: Профессиональный (двухголосый, закадровый) | ViruseProject Субтитры: Русские (ful (ViruseProject)) Раздача от: Автор релиза: JNS82. Формат: AVI Качество: WEB-DLRip Видео: 720x304 (2.35:1), 23.976 fps, XviD MPEG-4 ~ 1529 kbps avg, 0.279 bit/pixel, build 73 Аудио: 48 kHz, AC3 Dolby Digital, 2/0 (L,R) ch, ~ 192 kbps | RUS |
[+] MediaInfoОбщее Полное имя : D:TorrentsDen.grænseløse.2024.WEB-DLRip_от New-Team_by_JNS82Den.grænseløse.2024.WEB-DLRip_от New-Team_by_JNS82.avi Формат : AVI Формат/Информация : Audio Video Interleave Размер файла : 1,46 Гбайт Продолжительность : 2 ч. 1 м. Общий поток : 1 731 Кбит/сек Программа кодирования : VirtualDubMod 1.5.10.2 (build 2540/release) Библиотека кодирования : VirtualDubMod build 2540/release Видео Идентификатор : 0 Формат : MPEG-4 Visual Профиль формата : Advanced Simple@L5 Настройки формата : BVOP1 / Custom Matrix Параметр BVOP формата : 1 Параметр QPel формата : Нет Параметр GMC формата : Без точки перехода Параметр матрицы формата : Выборочная Идентификатор кодека : XVID Идентификатор кодека/Подсказка : XviD Продолжительность : 2 ч. 1 м. Битрейт : 1 529 Кбит/сек Ширина : 720 пикселей Высота : 304 пикселя Соотношение сторон : 2,35:1 Частота кадров : 25,000 кадров/сек Цветовое пространство : YUV Субдискретизация насыщенности : 4:2:0 Битовая глубина : 8 бит Тип развёртки : Прогрессивная Метод сжатия : С потерями Бит/(Пиксели*Кадры) : 0.279 Размер потока : 1,29 Гбайт (88%) Библиотека кодирования : XviD 73 Аудио Идентификатор : 1 Формат : AC-3 Формат/Информация : Audio Coding 3 Коммерческое название : Dolby Digital Идентификатор кодека : 2000 Продолжительность : 2 ч. 1 м. Вид битрейта : Постоянный Битрейт : 192 Кбит/сек Каналы : 2 канала Channel layout : L R Частота : 48,0 КГц Частота кадров : 31,250 кадров/сек (1536 SPF) Метод сжатия : С потерями Размер потока : 166 Мбайт (11%) Выравнивание : Разделение по промежуткам Продолжительность промежутка : 40 мс. (1,00 видеокадр) Время предзагрузки промежутка : 500 мс. Service kind : Complete Main

Всего файлов в раздаче: 2 
Den.grænseløse.2024.WEB-DLRip_от New-Team_by_JNS82.avi1.46 GB
Den.grænseløse.2024.WEB-DLRip_от New-Team_by_JNS82_[rus].srt103.16 kB

Похожие раздачи по запросу - Без
Вчера magnet Без обид / No Hard Feelings (2023) HDRip-AVC от DoMiNo & селезень | D | Red Head Sound, MovieDalen 2.23 GB ↑ 0 ↓ 1
2024-06-15 magnet Без сна / Non ho sonno / Sleepless (2001) BDRip 720p | P, А 15.75 GB ↑ 1 ↓ 0
2024-06-09 magnet Девушка без адреса (1957) DVDRip-AVC от New-Team 1.46 GB ↑ 0 ↓ 0
2024-06-08 magnet Девушка без адреса (1957) DVDRip от New-Team 2.18 GB ↑ 0 ↓ 0
2024-05-31 magnet Дмитрий Распопов - Связь без брака 4. Время собирать камни (2024) МР3 247.02 MB ↑ 0 ↓ 0
2024-05-20 magnet Беги без оглядки / Running Scared (2006) BDRip 1080p by msltel | D, P, A 12.70 GB ↑ 0 ↓ 0
2024-05-18 magnet Без следа [01-22 из 22] (2011-2012) WEB-DLRip-AVC 15.46 GB ↑ 0 ↓ 0

Комментарии


Зарегистрируйтесь чтобы добавить комментарий
Торрент клиент
byTorrent - программа для загрузки торрент-файлов.

Скачать byTorrent.exe (1,5 МБ)

Скачать byTorrent.zip (0,6 МБ)

Поддержи torrent.by
российских рублей
(300 российских рублей это 4$)

Обратная связь rss

End game ©