↑↓torrent.by
Поиск
Логин:  Регистрация
Пароль:

Шифр [S04] (2024) WEB-DLRip-AVC от Generalfilm | КПК

download Скачать торрент-файл   magnet Магнитная ссылка Размер: 1.83 GB Добавлен: 2024-05-14 05:00
Пиры будут получены из сети DHT
Последний сидер был замечен сегодня в 13:58
Информация о фильме Оригинальное название: Шифр Год выпуска: 2024 Жанр: Детектив, история Режиссер: Вера Сторожева В ролях: Марьяна Спивак, Екатерина Вилкова, Елена Панова, Яна Осипова, Сергей Пускепалис, Виталия Корниенко, Сергей Медведев (III), Максим Стоянов, Иван Шибанов, Светлана Колпакова, Сергей Попов, Николай Токарев, Семён Шкаликов, Дарья Мингазетдинова, Ксения Попович, Екатерина Вуличенко, Максим Битюков, Наталья Суркова, Анастасия Великородная, Светлана Тома, Любовь Руднева, Татьяна Яхина, Анна Королёва (II), Марина Хейстонен, Егор Кутенков, Татьяна Полонская, Илья Малаков, Михаил Крылов О сериале: Подруги, которых связывает военное прошлое, работа в спецотделе ГРУ, продолжают вести расследования и помогать следственным органам в особо запутанных делах. Но на этот раз все гораздо сложнее - Проскурин уволился из МУРа, перевелся в другой город. По просьбе Проскурина при МВД создается специальный аналитический отдел. Туда приглашают девушек. Они становятся частью системы и должны действовать по правилам. Девушки соглашаются, хотя понимают, что конфликта не избежать. Им предстоит отправиться в Кисловодск, где погиб видный партийный работник, его загрызли собственные собаки. В предсмертной записке он обвинил человека, погибшего много лет назад… Страна: Россия Студия: Кинокомпания "Sony Pictures Television", «Леан-М», Продюсерское объединение «Победа» Продолжительность: 8 х ~ 00:50:00 Перевод: Не требуется Файл Формат: MP4 Качество: WEB-DLRip-AVC | КПК Видео: MPEG-4 AVC (x264), 640x360, ~500 kbps, 25.000 fps Аудио: AAC LC, 48.0 KHz, 2 ch, 128 Kbps Субтитры: Нет
[+] Скриншоты
[+] MIComplete name : D:киноShifr.AVC.KPK.GFShifr.S04.2024.AVC.WEB-DLRip.KPK.GFShifr.s04e01.2024.AVC.WEB-DLRip.KPK.GF.mp4 Format : MPEG-4 Codec ID : M4V (isom/iso2/avc1) File size : 231 MiB Duration : 50mn 57s Overall bit rate mode : Variable Overall bit rate : 634 Kbps Writing application : Lavf53.19.0 Video ID : 1 Format : AVC Format/Info : Advanced Video Codec Format profile : High@L4.1 Format settings, CABAC : Yes Format settings, ReFrames : 8 frames Codec ID : avc1 Codec ID/Info : Advanced Video Coding Duration : 50mn 57s Bit rate : 500 Kbps Width : 640 pixels Height : 360 pixels Display aspect ratio : 16:9 Frame rate mode : Constant Frame rate : 25.000 fps Color space : YUV Chroma subsampling : 4:2:0 Bit depth : 8 bits Scan type : Progressive Bits/(Pixel*Frame) : 0.087 Stream size : 182 MiB (79%) Writing library : x264 core 146 r2538 121396c Encoding settings : cabac=1 / ref=8 / deblock=1:-1:-1 / analyse=0x3:0x133 / me=umh / subme=10 / psy=1 / psy_rd=1.00:0.00 / mixed_ref=1 / me_range=24 / chroma_me=1 / trellis=2 / 8x8dct=1 / cqm=0 / deadzone=21,11 / fast_pskip=1 / chroma_qp_offset=-2 / threads=3 / lookahead_threads=1 / sliced_threads=0 / nr=0 / decimate=1 / interlaced=0 / bluray_compat=0 / constrained_intra=0 / bframes=8 / b_pyramid=2 / b_adapt=2 / b_bias=0 / direct=3 / weightb=1 / open_gop=0 / weightp=2 / keyint=250 / keyint_min=126 / scenecut=40 / intra_refresh=0 / rc_lookahead=40 / rc=2pass / mbtree=1 / bitrate=500 / ratetol=1.0 / qcomp=0.60 / qpmin=0 / qpmax=69 / qpstep=4 / cplxblur=20.0 / qblur=0.5 / ip_ratio=1.40 / aq=1:1.00 Menus : 3 Audio ID : 2 Format : AAC Format/Info : Advanced Audio Codec Format profile : LC Codec ID : 40 Duration : 50mn 57s Bit rate mode : Variable Bit rate : 128 Kbps Channel(s) : 2 channels Channel positions : Front: L R Sampling rate : 48.0 KHz Frame rate : 46.875 fps (1024 spf) Compression mode : Lossy Stream size : 46.6 MiB (20%) Default : Yes Alternate group : 1 Menus : 3
Релиз от:

Всего файлов в раздаче: 8 
Shifr.S04.2024.AVC.WEB-DLRip.KPK.GF\Shifr.s04e01.2024.AVC.WEB-DLRip.KPK.GF.mp4231.04 MB
Shifr.S04.2024.AVC.WEB-DLRip.KPK.GF\Shifr.s04e02.2024.AVC.WEB-DLRip.KPK.GF.mp4223.69 MB
Shifr.S04.2024.AVC.WEB-DLRip.KPK.GF\Shifr.s04e03.2024.AVC.WEB-DLRip.KPK.GF.mp4230.06 MB
Shifr.S04.2024.AVC.WEB-DLRip.KPK.GF\Shifr.s04e04.2024.AVC.WEB-DLRip.KPK.GF.mp4240.24 MB
Shifr.S04.2024.AVC.WEB-DLRip.KPK.GF\Shifr.s04e05.2024.AVC.WEB-DLRip.KPK.GF.mp4231.39 MB
Shifr.S04.2024.AVC.WEB-DLRip.KPK.GF\Shifr.s04e06.2024.AVC.WEB-DLRip.KPK.GF.mp4232.78 MB
Shifr.S04.2024.AVC.WEB-DLRip.KPK.GF\Shifr.s04e07.2024.AVC.WEB-DLRip.KPK.GF.mp4240.31 MB
Shifr.S04.2024.AVC.WEB-DLRip.KPK.GF\Shifr.s04e08.2024.AVC.WEB-DLRip.KPK.GF.mp4248.88 MB

Похожие раздачи по запросу - Шифр
2024-05-11 magnet Шифр [04х01-08 из 16] (2023) WEB-DL 1080p от Files-x 12.06 GB ↑ 0 ↓ 0
2024-05-10 magnet Шифр [S04] (2024) WEB-DLRip-AVC от Files-х 5.19 GB ↑ 0 ↓ 0
2024-05-10 magnet Шифр [04х01-08 из 16] (2023) WEB-DLRip от Files-x 5.20 GB ↑ 0 ↓ 0
2024-05-10 magnet Шифр [S04] (2023) WEB-DL 720p от ExKinoRay 7.73 GB ↑ 0 ↓ 0
2024-05-10 magnet Шифр [04х01-08 из 16] (2023) WEB-DLRip от Files-x 5.20 GB ↑ 0 ↓ 0
2024-05-10 magnet Шифр [S04] (2023) WEBRip 1080p от ExKinoRay 1К12.00 GB ↑ 0 ↓ 0
2024-05-10 magnet Шифр / Сезон: 4 / Серии: 1-8 из 16 [2023, детектив, WEBRip-AVC] от Aleksan55 5.20 GB ↑ 0 ↓ 0

Комментарии


Зарегистрируйтесь чтобы добавить комментарий
Торрент клиент
byTorrent - программа для загрузки торрент-файлов.

Скачать byTorrent.exe (1,5 МБ)

Скачать byTorrent.zip (0,6 МБ)

Поддержи torrent.by
российских рублей
(300 российских рублей это 4$)

Обратная связь rss

End game ©