↑↓torrent.by
Поиск
Логин:  Регистрация
Пароль:

Дежавю / Deja Vu (2006) BDRip-AVC от ExKinoRay | D, P

download Скачать торрент-файл   magnet Магнитная ссылка Размер: 1.09 GB Добавлен: 2024-05-14 11:00
Пиры будут получены из сети DHT
Последний сидер был замечен 2024-05-19 19:46
Информация о фильме Название: Дежавю Оригинальное название: Deja Vu Год выхода: 2006 Жанр: Фантастика, боевик, триллер Режиссер: Тони Скотт В ролях: Дензел Вашингтон, Пола Пэттон, Вэл Килмер, Джеймс Кэвизел, Адам Голдберг, Элден Хенсон, Эрика Александр, Брюс Гринвуд, Рич Хатчмэн, Мэтт Крэвен О фильме : Каждый из нас хотя бы раз в жизни испытывал эффект дежа вю, когда нам вдруг начинает казаться, что мы знакомы с людьми, которых на самом деле раньше никогда не видели, и уже бывали в местах, где на самом деле никогда не были. И, возможно, в такие моменты кому-то приходила в голову мысль, что эти ощущения - не что иное, как предупреждения, посланные нам из прошлого, а может быть, и ключ к познанию будущего. Агент АТФ Даг Карлин получает возможность совершать путешествия во времени, расследуя обстоятельства взрыва, произошедшего на новоорлеанском пароме. Оказавшись в прошлом, он встречает женщину, которую должны убить, и в итоге влюбляется в нее… Страна: США, Великобритания Студия: Touchstone Pictures, Jerry Bruckheimer Films Продолжительность: 02:06:27 Перевод 1: Профессиональный (полное дублирование) - Blu-ray CEE Перевод 2: Профессиональный (многоголосый закадровый) - Киномания Файл Формат: MKV Качество: BDRip-AVC (BDRemux 1080p) Видео: MPEG-4 AVC, 768x320, ~ 1075 Кбит/с Аудио 1: AAC-HE, 2 ch, ~ 76 Кбит/с | Blu-ray CEE Аудио 2: AAC-HE, 2 ch, ~ 76 Кбит/с | Киномания Субтитры: Русские, английские, украинские
[+] MIОбщее Уникальный идентификатор : 183102844757192288433377321056721071138 (0x89C0533DD1B83FC181734902DC466C22) Полное имя : D:MOVIESDeja.Vu.2006.ExKinoRay.mkv Формат : Matroska Версия формата : Version 4 / Version 2 Размер файла : 1,09 Гбайт Продолжительность : 2 ч. 6 м. Общий поток : 1229 Кбит/сек Дата кодирования : UTC 2018-03-20 05:40:00 Программа кодирования : mkvmerge v15.0.0 ('Duel with the Devil') 64-bit Библиотека кодирования : libebml v1.3.5 + libmatroska v1.4.5 Видео Идентификатор : 1 Формат : AVC Формат/Информация : Advanced Video Codec Профиль формата : High@L4.1 Параметр CABAC формата : Да Параметр RefFrames формата : 10 кадров Идентификатор кодека : V_MPEG4/ISO/AVC Продолжительность : 2 ч. 6 м. Битрейт : 1075 Кбит/сек Ширина : 768 пикселей Высота : 320 пикселей Соотношение сторон : 2,40:1 Режим частоты кадров : Постоянный Частота кадров : 23,976 (24000/1001) кадра/сек Цветовое пространство : YUV Субдискретизация насыщенности : 4:2:0 Битовая глубина : 8 бит Тип развёртки : Прогрессивная Бит/(Пиксели*Кадры) : 0.182 Размер потока : 972 Мбайт (87%) Библиотека кодирования : x264 core 155 r2901 7d0ff22 Настройки программы : cabac=1 / ref=10 / deblock=1:-2:-2 / analyse=0x3:0x133 / me=umh / subme=11 / psy=1 / psy_rd=1.00:0.08 / mixed_ref=1 / me_range=32 / chroma_me=1 / trellis=2 / 8x8dct=1 / cqm=0 / deadzone=21,11 / fast_pskip=0 / chroma_qp_offset=-3 / threads=6 / lookahead_threads=1 / sliced_threads=0 / nr=0 / decimate=0 / interlaced=0 / bluray_compat=0 / constrained_intra=0 / bframes=10 / b_pyramid=2 / b_adapt=2 / b_bias=0 / direct=3 / weightb=1 / open_gop=0 / weightp=2 / keyint=240 / keyint_min=23 / scenecut=40 / intra_refresh=0 / rc_lookahead=40 / rc=2pass / mbtree=1 / bitrate=1075 / ratetol=1.0 / qcomp=0.60 / qpmin=0 / qpmax=69 / qpstep=4 / cplxblur=20.0 / qblur=0.5 / vbv_maxrate=50000 / vbv_bufsize=62500 / nal_hrd=none / filler=0 / ip_ratio=1.40 / aq=3:1.00 Default : Да Forced : Нет Аудио #1 Идентификатор : 2 Формат : AAC Формат/Информация : Advanced Audio Codec Профиль формата : HE-AAC / LC Идентификатор кодека : A_AAC Продолжительность : 2 ч. 6 м. Битрейт : 76,0 Кбит/сек Каналы : 2 канала Расположение каналов : Front: L R Частота : 48,0 КГц / 24,0 КГц Частота кадров : 23,438 кадра/сек (1024 SPF) Метод сжатия : С потерями Задержка видео : 31 мс. Размер потока : 68,8 Мбайт (6%) Заголовок : Dub Язык : Russian Default : Да Forced : Нет Аудио #2 Идентификатор : 3 Формат : AAC Формат/Информация : Advanced Audio Codec Профиль формата : HE-AAC / LC Идентификатор кодека : A_AAC Продолжительность : 2 ч. 6 м. Битрейт : 76,0 Кбит/сек Каналы : 2 канала Расположение каналов : Front: L R Частота : 48,0 КГц / 24,0 КГц Частота кадров : 23,438 кадра/сек (1024 SPF) Метод сжатия : С потерями Задержка видео : 31 мс. Размер потока : 68,7 Мбайт (6%) Заголовок : MVO Язык : Russian Default : Нет Forced : Нет Текст #1 Идентификатор : 4 Формат : UTF-8 Идентификатор кодека : S_TEXT/UTF8 Идентификатор кодека/Информация : UTF-8 Plain Text Продолжительность : 1 ч. 57 м. Битрейт : 95 бит/сек ElementCount : 1580 Размер потока : 82,3 Кбайт (0%) Язык : Russian Default : Нет Forced : Нет Текст #2 Идентификатор : 5 Формат : UTF-8 Идентификатор кодека : S_TEXT/UTF8 Идентификатор кодека/Информация : UTF-8 Plain Text Продолжительность : 1 ч. 57 м. Битрейт : 109 бит/сек ElementCount : 1581 Размер потока : 93,9 Кбайт (0%) Язык : Ukrainian Default : Нет Forced : Нет Текст #3 Идентификатор : 6 Формат : UTF-8 Идентификатор кодека : S_TEXT/UTF8 Идентификатор кодека/Информация : UTF-8 Plain Text Продолжительность : 1 ч. 55 м. Битрейт : 66 бит/сек ElementCount : 1531 Размер потока : 56,3 Кбайт (0%) Язык : English Default : Нет Forced : Нет
[+] Скриншоты
Релиз от:

Всего файлов в раздаче: 1 
Deja.Vu.2006.ExKinoRay.mkv1.09 GB

Похожие раздачи по запросу - Дежавю
2024-05-20 magnet Лора Кейли - Дежавю (2024) MP3 371.12 MB ↑ 0 ↓ 0
2024-05-14 magnet Дежавю / Deja Vu (2006) WEB-DLRip-AVC от DoMiNo | D | Open Matte | Локализованная версия 2.18 GB ↑ 0 ↓ 0

Комментарии


Зарегистрируйтесь чтобы добавить комментарий
Торрент клиент
byTorrent - программа для загрузки торрент-файлов.

Скачать byTorrent.exe (1,5 МБ)

Скачать byTorrent.zip (0,6 МБ)

Поддержи torrent.by
российских рублей
(300 российских рублей это 4$)

Обратная связь rss

End game ©