↑↓torrent.by
Поиск
Логин:  Регистрация
Пароль:

Наклз / Knuckles [S01] (2024) UHD WEB-DL-HEVC 2160p | 4K | SDR | D, P

download Скачать торрент-файл   magnet Магнитная ссылка Размер: 20.06 GB Раздают: 0 Качают: 1 Добавлен: 2024-05-14 11:00
Пиры будут получены из сети DHT
Последний сидер был замечен 2024-05-15 21:43
Название: Наклз Оригинальное название: Knuckles Год выхода: 2024 Производство: США, Япония / Paramount Pictures, Sega Sammy Group, Original Film Жанр: Фантастика, фэнтези, боевик, комедия Перевод: Неофициальный дублированный, профессиональный многоголосый Продолжительность: 06х ~00:35:00 Режиссёры: Кэрол Бенкер, Брэндон Трост В ролях: Идрис Эльба, Адам Палли, Джейми Барбакофф, Тони Коклан, Бен Шварц, Дэниэл Сингх, Коллин О’Шонесси, Альфредо Таварес, Адам Керр Описание: Сериал Наклз спин-офф серии фильмов "Соник в кино". Красная ехидна Наклз вступает в неожиданное партнёрство с полицейским Уэйдом Уипплом. Наклз соглашается стать наставником Уэйда и делится с ним своими уникальными приёмами воина. Вместе они принимаются за разгадывание сложных преступлений и борются с преступностью, в которую они втянуты из-за их совместных усилий. Формат: MKV Качество: WEB-DL 2160p Видео: MPEG-H HEVC / ~14,4 Мбит/с / 3840х1600 / 23.976 fps Аудио 1: AC3, 6 ch, 640 kbps, русский (DUB Red Head Sound) Аудио 2: AC3, 6 ch, 448 kbps, русский (MVO TVShows) Аудио 3: AC3, 2 ch, 384 kbps, русский (MVO HDRezka Studio) Аудио 4: AC3, 6 ch, 640 kbps, английский Субтитры: Русские (Forced), английские (Full, SDH)
[+] MediainfoОбщее Уникальный идентификатор : 220001986766899085799955261981982442558 (0xA582D766E6D6ACA1BEC674DF8EBBC43E) Полное имя : Наклз. Сериал. 2024 (HEVC,SDR,WEB-DL 2160p)Knuckles.s01e01. Воин.mkv Формат : Matroska Версия формата : Version 2 Размер файла : 3,97 Гбайт Продолжительность : 33 м. 48 с. Общий поток : 16,8 Мбит/сек Частота кадров : 23,976 кадра/сек Название фильма : Knuckles.S01E01.The Warrior.HEVC.h.265.SDR.WEB-DL 2160p.Atla22 Дата кодирования : 2024-05-09 14:09:14 UTC Программа кодирования : mkvmerge v7.8.0 ('River Man') 32bit built on Apr 3 2015 12:11:22 Библиотека кодирования : libebml v1.3.1 + libmatroska v1.4.2 Обложка : Yes Attachments : Cover_Knuckles.jpg Видео Идентификатор : 1 Формат : HEVC Формат/Информация : High Efficiency Video Coding Профиль формата : Main@L5@Main Идентификатор кодека : V_MPEGH/ISO/HEVC Продолжительность : 33 м. 48 с. Битрейт : 14,4 Мбит/сек Ширина : 3 840 пикселей Высота : 1 600 пикселей Соотношение сторон : 2,40:1 Режим частоты кадров : Постоянный Частота кадров : 23,976 (24000/1001) кадра/сек Цветовое пространство : YUV Субдискретизация насыщенности : 4:2:0 Битовая глубина : 8 бит Бит/(Пиксели*Кадры) : 0.098 Размер потока : 3,39 Гбайт (85%) Язык : English Default : Да Forced : Нет Цветовой диапазон : Limited Основные цвета : BT.709 Характеристики трансфера : BT.709 Коэффициенты матрицы : BT.709 Аудио #1 Идентификатор : 2 Формат : AC-3 Формат/Информация : Audio Coding 3 Коммерческое название : Dolby Digital Идентификатор кодека : A_AC3 Продолжительность : 33 м. 48 с. Вид битрейта : Постоянный Битрейт : 640 Кбит/сек Каналы : 6 каналов Channel layout : L R C LFE Ls Rs Частота : 48,0 КГц Частота кадров : 31,250 кадров/сек (1536 SPF) Метод сжатия : С потерями Размер потока : 155 Мбайт (4%) Заголовок : DUB - RHS Язык : Russian Service kind : Complete Main Default : Да Forced : Нет Аудио #2 Идентификатор : 3 Формат : AC-3 Формат/Информация : Audio Coding 3 Коммерческое название : Dolby Digital Идентификатор кодека : A_AC3 Продолжительность : 33 м. 48 с. Вид битрейта : Постоянный Битрейт : 448 Кбит/сек Каналы : 6 каналов Channel layout : L R C LFE Ls Rs Частота : 48,0 КГц Частота кадров : 31,250 кадров/сек (1536 SPF) Метод сжатия : С потерями Размер потока : 108 Мбайт (3%) Заголовок : TVShows Язык : Russian Service kind : Complete Main Default : Нет Forced : Нет Аудио #3 Идентификатор : 4 Формат : AC-3 Формат/Информация : Audio Coding 3 Коммерческое название : Dolby Digital Идентификатор кодека : A_AC3 Продолжительность : 33 м. 48 с. Вид битрейта : Постоянный Битрейт : 384 Кбит/сек Каналы : 2 канала Channel layout : L R Частота : 48,0 КГц Частота кадров : 31,250 кадров/сек (1536 SPF) Метод сжатия : С потерями Размер потока : 92,9 Мбайт (2%) Заголовок : HDRezka Studio Язык : Russian Service kind : Complete Main Default : Нет Forced : Нет Аудио #4 Идентификатор : 5 Формат : AC-3 Формат/Информация : Audio Coding 3 Коммерческое название : Dolby Digital Идентификатор кодека : A_AC3 Продолжительность : 33 м. 48 с. Вид битрейта : Постоянный Битрейт : 640 Кбит/сек Каналы : 6 каналов Channel layout : L R C LFE Ls Rs Частота : 48,0 КГц Частота кадров : 31,250 кадров/сек (1536 SPF) Метод сжатия : С потерями Размер потока : 155 Мбайт (4%) Язык : English Service kind : Complete Main Default : Нет Forced : Нет Текст #1 Идентификатор : 6 Формат : UTF-8 Идентификатор кодека : S_TEXT/UTF8 Идентификатор кодека/Информация : UTF-8 Plain Text Заголовок : Forced Язык : Russian Default : Да Forced : Да Текст #2 Идентификатор : 7 Формат : UTF-8 Идентификатор кодека : S_TEXT/UTF8 Идентификатор кодека/Информация : UTF-8 Plain Text Заголовок : SDH Язык : English Default : Нет Forced : Нет
[+] Скриншоты

Всего файлов в раздаче: 6 
Knuckles.s01e01. Воин.mkv3.97 GB
Knuckles.s01e02. Никогда не говори, что меня не было рядом.mkv2.99 GB
Knuckles.s01e03. Субботний ужин.mkv3.27 GB
Knuckles.s01e04. Разгар катастрофы.mkv2.80 GB
Knuckles.s01e05. Это Рино, детка.mkv3.62 GB
Knuckles.s01e06. То, что происходит в Рино, остаётся в Рино.mkv3.40 GB

Похожие раздачи по запросу - Наклз
2024-05-11 magnet Наклз / Knuckles [S01] (2024) WEB-DL 1080p | D, P 13.16 GB ↑ 0 ↓ 3
2024-05-09 magnet Наклз / Knuckles [S01] (2024) WEB-DLRip-AVC от DoMiNo & селезень | D, P | Red Head Sound, HDRezka Studio, LostFilm 2.93 GB ↑ 0 ↓ 0
2024-05-09 magnet Наклз / Knuckles [S01] (2024) WEB-DL 1080p от Scarabey | D | Red Head Sound 12.46 GB ↑ 0 ↓ 0
2024-05-08 magnet Наклз / Knuckles [S01] (2024) WEB-DL 1080p | D, P 12.78 GB ↑ 0 ↓ 0
2024-05-08 magnet Наклз / Knuckles [01x01-03 из 06] (2024) WEB-DL 1080p от Scarabey | D | Red Head Sound 6.22 GB ↑ 0 ↓ 0
2024-05-06 magnet Наклз / Knuckles [S01] (2024) UHD WEB-DL-HEVC 2160p | 4K | HDR10+ | HDRezka Studio 17.40 GB ↑ 0 ↓ 0
2024-05-06 magnet Наклз / Knuckles [S01] (2024) WEB-DL 1080p | D, P 12.38 GB ↑ 0 ↓ 1

Кто качает (только для создателя раздачи и модераторов):
ПользовательIP:портОтдалПринялОстатокСидируетТоррент клиентОбновился
1 Аноним 140.119.73.217:32000 1.03 MB 1.56 GB 19.98 GB нет -qB4390- 07:19 2024-05-19

Комментарии


Зарегистрируйтесь чтобы добавить комментарий
Торрент клиент
byTorrent - программа для загрузки торрент-файлов.

Скачать byTorrent.exe (1,5 МБ)

Скачать byTorrent.zip (0,6 МБ)

Поддержи torrent.by
российских рублей
(300 российских рублей это 4$)

Обратная связь rss

End game ©