↑↓torrent.by
Поиск
Логин:  Регистрация
Пароль:

Человек-паук 5000 / Spider-Man [S01] (1981-1982) DVDRip-AVC | D, P

download Скачать торрент-файл   magnet Магнитная ссылка Размер: 10.13 GB Добавлен: 2024-05-14 11:00
Пиры будут получены из сети DHT
Последний сидер был замечен 2024-05-14 11:00
Информация о фильме Название: Человек-паук 5000 Оригинальное название: Spider-Man Год выхода: 1981-1982 Жанр: мультсериал, приключения, фантастика Режиссер: Дон Юрвич / Don Jurwich О фильме: Питер Паркер, став в один прекрасный день супер-героем в результате мутации, начавшейся из-за укуса радиоактивного паука, облучённого в процессе эксперимента, проводимого в научной школе, снова борется за справедливость со своими давними врагами, такими, как доктор Октопус или Зелёный Гоблин… Но у него появляются и новые соперники.. Например — доктор Дум, Хамелеон… Страна: США Продолжительность: 00:22:00 Перевод: Дублированный, профессиональный (многоголосый закадровый) Файл Формат: MKV Качество: DVDRip-AVC Видео: AVC/H.264, 720х552, 25 fps, ~1656 kbps Аудио 1: AC3, 2 ch, 192 kbps - Русский (DUB CTC) Серии 1-3, 5-8, 11-13, 15, 17-19, 21, 23-26 Аудио 2: AC3, 2 ch, 192 kbps - Русский (MVO) Cерии 4-6, 9-10, 14-16, 18, 20-22, 24-25 Аудио 3: AC3, 2 ch, 192 kbps - Английский Субтитры: английские
[+] MediaInfoGeneral Unique ID : 1876873072879567660281035725790974439 (0x16978FCA8FCCDDB88518715DE2711E7) Complete name : D:Spider-Man.1981.DVDRipSpider-Man.s01e01-Bubble, Bubble, Oil and Trouble.mkv Format : Matroska Format version : Version 4 File size : 319 MiB Duration : 21 min 50 s Overall bit rate : 2 042 kb/s Encoded date : UTC 2024-05-03 11:53:51 Writing application : mkvmerge v46.0.0 ('No Deeper Escape') 32-bit Writing library : libebml v1.3.10 + libmatroska v1.5.2 Video ID : 1 Format : AVC Format/Info : Advanced Video Codec Format profile : High@L4.1 Format settings : CABAC / 8 Ref Frames Format settings, CABAC : Yes Format settings, Reference : 8 frames Codec ID : V_MPEG4/ISO/AVC Duration : 21 min 50 s Bit rate : 1 656 kb/s Width : 720 pixels Height : 552 pixels Display aspect ratio : 4:3 Frame rate mode : Constant Frame rate : 25.000 FPS Color space : YUV Chroma subsampling : 4:2:0 Bit depth : 8 bits Scan type : Progressive Bits/(Pixel*Frame) : 0.167 Stream size : 259 MiB (81%) Writing library : x264 core 164 r3182 be4f020 Encoding settings : cabac=1 / ref=8 / deblock=1:-2:-2 / analyse=0x3:0x133 / me=umh / subme=9 / psy=1 / psy_rd=1.00:0.12 / mixed_ref=1 / me_range=24 / chroma_me=1 / trellis=2 / 8x8dct=1 / cqm=0 / deadzone=21,11 / fast_pskip=0 / chroma_qp_offset=-3 / threads=4 / lookahead_threads=1 / sliced_threads=0 / nr=0 / decimate=1 / interlaced=0 / bluray_compat=0 / constrained_intra=0 / bframes=8 / b_pyramid=2 / b_adapt=2 / b_bias=0 / direct=3 / weightb=1 / open_gop=0 / weightp=2 / keyint=250 / keyint_min=25 / scenecut=40 / intra_refresh=0 / rc=crf / mbtree=0 / crf=19.0 / qcomp=0.70 / qpmin=0 / qpmax=69 / qpstep=4 / ip_ratio=1.40 / pb_ratio=1.30 / aq=2:1.00 Language : English Default : Yes Forced : No Audio #1 ID : 2 Format : AC-3 Format/Info : Audio Coding 3 Commercial name : Dolby Digital Codec ID : A_AC3 Duration : 21 min 49 s Bit rate mode : Constant Bit rate : 192 kb/s Channel(s) : 2 channels Channel layout : L R Sampling rate : 48.0 kHz Frame rate : 31.250 FPS (1536 SPF) Compression mode : Lossy Stream size : 30.0 MiB (9%) Language : Russian Service kind : Complete Main Default : Yes Forced : No Audio #2 ID : 3 Format : AC-3 Format/Info : Audio Coding 3 Commercial name : Dolby Digital Codec ID : A_AC3 Duration : 21 min 50 s Bit rate mode : Constant Bit rate : 192 kb/s Channel(s) : 2 channels Channel layout : L R Sampling rate : 48.0 kHz Frame rate : 31.250 FPS (1536 SPF) Compression mode : Lossy Stream size : 30.0 MiB (9%) Language : English Service kind : Complete Main Default : No Forced : No Text ID : 4 Format : UTF-8 Codec ID : S_TEXT/UTF8 Codec ID/Info : UTF-8 Plain Text Duration : 19 min 59 s Bit rate : 74 b/s Count of elements : 324 Stream size : 10.9 KiB (0%) Language : English Default : No Forced : No
[+] Примечание:отдельно добавлены 4 расширенные сцены из WEBRip
[+] Список серий:01. Bubble, Bubble, Oil And Trouble 02. Doctor Doom, Master Of The World 03. Lizards, Lizards Everywhere 04. Curiosity Killed The Spider-Man 05. The Sandman Is Coming 06. When Magneto Speaks... People Listen 07. The Pied Piper Of New York Town 08. The Doctor Prescribes Doom 09. Carnival Of Crime 10. Revenge Of The Green Goblin 11. Triangle Of Evil 12. The A-B-C's Of D-O-O-M 13. The Sidewinder Strikes! 14. The Hunter And The Hunted 15. The Incredible Shrinking Spider-Man 16. The Linfathomable Professor Gizmo 17. Canon Of Doom 18. The Capture Of Captain America 19. The Doom Report 20. The Web Of Nephilia 21. Countdown To Doom 22. Arsenic And Aunt May 23. The Vulture Has Landed 24. Wrath Of The Sub-Marner 25. The Return Of Kingpin 26. Under The Wizard's Spell
[+] Скриншоты

Всего файлов в раздаче: 30 
Spider-Man.s01e01-Bubble, Bubble, Oil and Trouble.mkv318.94 MB
Spider-Man.s01e02-Dr. Doom, Master of the World.mkv324.91 MB
Spider-Man.s01e03-Lizards, Lizards, Everywhere.mkv321.51 MB
Spider-Man.s01e04-Curiosity Killed the Spider-Man.mkv317.84 MB
Spider-Man.s01e05-The Sandman Is Coming.mkv382.93 MB
Spider-Man.s01e06-When Magneto Speaks People Listen.mkv488.83 MB
Spider-Man.s01e07-The Pied Piper of New York Town.mkv488.36 MB
Spider-Man.s01e08-The Doctor Prescribes Doom.mkv516.67 MB
Spider-Man.s01e09-Carnival Of Crime.mkv344.89 MB
Spider-Man.s01e10-Revenge Of The Green Goblin.mkv512.05 MB
Показать все файлы

Похожие раздачи по запросу - Человек-паук
2024-05-15 magnet Григорий Шаргородский - Оценщик 1. Человек с тенью (2024) MP3 344.60 MB ↑ 0 ↓ 0
2024-05-14 magnet Человек-паук: Вдали от дома / Spider-Man: Far from Home (2019) HybridRip 1080p | D, P | Open Matte 5.05 GB ↑ 0 ↓ 0
2024-04-23 magnet Инди Видум - Сангрелар 1. Дон Алехандро, человек и чародей (2024) MP3 317.13 MB ↑ 0 ↓ 0
2024-04-18 magnet Человек с тысячью лиц / El hombre de las mil caras / Smoke and Mirrors (2016) BDRip-AVC от New-Team | Pazl Voice 2.17 GB ↑ 0 ↓ 0
2024-04-18 magnet Человек с тысячью лиц / El hombre de las mil caras / Smoke and Mirrors (2016) BDRip от New-Team | Pazl Voice 1.46 GB ↑ 0 ↓ 0
2024-04-17 magnet Паук внутри: История Паутины Вселенных / The Spider Within: A Spider-Verse Story (2024) UHD WEB-RIP 2160p | D | Flarrow Films 347.58 MB ↑ 0 ↓ 0
2024-04-15 magnet Человек ниоткуда (2023) WEB-DLRip-AVC от ExKinoRay 1.45 GB ↑ 0 ↓ 0

Кто качает (только для создателя раздачи и модераторов): Локальные пиры отсутствуют

Комментарии


Зарегистрируйтесь чтобы добавить комментарий
Торрент клиент
byTorrent - программа для загрузки торрент-файлов.

Скачать byTorrent.exe (1,5 МБ)

Скачать byTorrent.zip (0,6 МБ)

Поддержи torrent.by
российских рублей
(300 российских рублей это 4$)

Обратная связь rss

End game ©