↑↓torrent.by
Поиск
Логин:  Регистрация
Пароль:

Смертельное оружие 2 / Lethal weapon 2 (1989) BDRip-AVC от New-Team | D

download Скачать торрент-файл   magnet Магнитная ссылка Размер: 1.46 GB Раздают: 1 Качают: 0 Добавлен: 2024-05-14 11:00
Пиры будут получены из сети DHT
Последний сидер был замечен сегодня в 07:05
Страна: США Производство: Silver Pictures, Warner Bros. Жанр: боевик, триллер, криминал Год выпуска: 1989 Продолжительность: 01:54:27 Перевод: Профессиональный (полное дублирование) Blu-Ray CEE Оригинальная аудиодорожка: английский Cубтитры: русский В ролях: Мэл Гибсон (Martin Riggs), Дэнни Гловер (Roger Murtaugh), Джо Пеши (Leo Getz), Джосс Экленд (Arjen Rudd), Деррик О’Коннор (Pieter Vorstedt), Пэтси Кензит (Rika Van Den Haas), Дарлин Лав (Trish Murtaugh), Трэйси Вульф (Rianne Murtaugh), Стив Кэхэн (Captain Murphy), Марк Ролстон (Hans), Дженетт Голдстин (Meagan Shapiro), Дин Норрис (Tim Cavanaugh) Подробнее об актерах Роли дублировали: Александр Новиков, Леонид Белозорович, Анатолий Кузнецов, Вячеслав Баранов, Вадим Андреев... Описание: Мартин Риггс - необычный полицейский. Его умение убивать и безрассудство самоубийцы сделали из него "Смертельное оружие" для любого противника. Или - напарника. Роджер Мертох - дружелюбный детектив-семьянин, с большим домом, любящей семьей и видами на пенсию, которую он не хочет потерять. Представьте себе шок Мертоха, когда он узнает, что его напарником будет парень, которому нечего терять: бешеный Мартин Риггс... Исходник: BDRemux 1080p Тип релиза: BDRip-AVC Контейнер: MKV Видео: 1024x428 (2,39:1), 23,976 кадра/сек, x264 core 164 r3182 ~ 1 439 кбит/сек, 0.137 бит/пиксель Аудио: 48 кГц, Dolby Digital AC3 2.0, 192 кбит/сек DUB Blu-Ray CEE Аудио: 48 кГц, Dolby Digital AC3 2.0, 192 кбит/сек английский Субтитры: SoftSub (srt) Оригинальная навигация по главам: есть Раздача от:
[+] MediaInfo Общее Полное имя : Смертельное оружие 2.1989.BDRip-AVC__by_AVP_Studio.mkv Формат : Matroska Версия формата : Version 4 Размер файла : 1,46 Гбайт Продолжительность : 1 ч. 54 мин. Общий битрейт : 1 825 Кбит/сек Частота кадров : 23,976 кадра/сек Дата кодирования : 2024-05-13 07:43:25 UTC Программа кодирования : mkvmerge v83.0 ('Circle Of Friends') 64-bit Библиотека кодирования : libebml v1.4.5 + libmatroska v1.7.1 Видео Идентификатор : 1 Формат : AVC Формат/Информация : Advanced Video Codec Профиль формата : High@L4.1 Настройки формата : CABAC / 10 Ref Frames Параметр CABAC формата : Да Параметр RefFrames формата : 10 кадров Идентификатор кодека : V_MPEG4/ISO/AVC Продолжительность : 1 ч. 54 мин. Битрейт : 1 439 Кбит/сек Ширина : 1 024 пикселя Высота : 428 пикселей Соотношение сторон дисплея : 2,39:1 Режим частоты кадров : Постоянный Частота кадров : 23,976 (24000/1001) кадра/сек Цветовое пространство : YUV Цветовая субдискретизация : 4:2:0 Битовая глубина : 8 бит Тип развёртки : Прогрессивная Бит/(Пиксели*Кадры) : 0.137 Размер потока : 1,15 Гбайт (79%) Заголовок : Исходник BDRemux 1080p Библиотека кодирования : x264 core 164 r3182 be4f020 Параметры библиотеки кодирования : cabac=1 / ref=10 / deblock=1:-3:-2 / analyse=0x3:0x113 / me=umh / subme=10 / psy=1 / psy_rd=1.00:0.00 / mixed_ref=1 / me_range=32 / chroma_me=1 / trellis=2 / 8x8dct=1 / cqm=0 / deadzone=21,11 / fast_pskip=1 / chroma_qp_offset=-2 / threads=6 / lookahead_threads=1 / sliced_threads=0 / nr=0 / decimate=0 / interlaced=0 / bluray_compat=0 / constrained_intra=0 / bframes=8 / b_pyramid=2 / b_adapt=2 / b_bias=0 / direct=3 / weightb=1 / open_gop=0 / weightp=2 / keyint=240 / keyint_min=24 / scenecut=40 / intra_refresh=0 / rc_lookahead=40 / rc=2pass / mbtree=1 / bitrate=1439 / ratetol=1.0 / qcomp=0.60 / qpmin=0 / qpmax=69 / qpstep=4 / cplxblur=20.0 / qblur=0.5 / ip_ratio=1.40 / aq=1:1.00 Язык : Русский По умолчанию : Да Принудительно : Нет Аудио #1 Идентификатор : 2 Формат : AC-3 Формат/Информация : Audio Coding 3 Коммерческое название : Dolby Digital Идентификатор кодека : A_AC3 Продолжительность : 1 ч. 54 мин. Вид битрейта : Постоянный Битрейт : 192 Кбит/сек Канал(-ы) : 2 канала Расположение каналов : L R Частота дискретизации : 48,0 КГц Частота кадров : 31,250 кадров/сек (1536 SPF) Метод сжатия : С потерями Размер потока : 157 Мбайт (11%) Заголовок : Профессиональный (дублированный) Blu-Ray CEE Язык : Русский По умолчанию : Да Принудительно : Нет Аудио #2 Идентификатор : 3 Формат : AC-3 Формат/Информация : Audio Coding 3 Коммерческое название : Dolby Digital Идентификатор кодека : A_AC3 Продолжительность : 1 ч. 54 мин. Вид битрейта : Постоянный Битрейт : 192 Кбит/сек Канал(-ы) : 2 канала Расположение каналов : L R Частота дискретизации : 48,0 КГц Частота кадров : 31,250 кадров/сек (1536 SPF) Метод сжатия : С потерями Размер потока : 157 Мбайт (11%) Заголовок : Оригинал Язык : Английский По умолчанию : Да Принудительно : Нет Текст Идентификатор : 4 Формат : UTF-8 Идентификатор кодека : S_TEXT/UTF8 Идентификатор кодека/Информация : UTF-8 Plain Text Продолжительность : 1 ч. 53 мин. Битрейт : 70 бит/сек Частота кадров : 0,186 кадр/сек Число элементов : 1270 Размер потока : 58,4 КиБ (0%) Язык : Русский По умолчанию : Нет Принудительно : Нет Меню 00:00:00.000 : Chapter 01 00:07:51.387 : Chapter 02 00:10:00.266 : Chapter 03 00:11:20.262 : Chapter 04 00:12:58.903 : Chapter 05 00:16:26.110 : Chapter 06 00:18:21.141 : Chapter 07 00:21:42.009 : Chapter 08 00:23:42.003 : Chapter 09 00:25:56.846 : Chapter 10 00:30:25.156 : Chapter 11 00:33:51.821 : Chapter 12 00:35:59.448 : Chapter 13 00:39:39.794 : Chapter 14 00:42:38.430 : Chapter 15 00:43:58.927 : Chapter 16 00:45:34.064 : Chapter 17 00:47:12.120 : Chapter 18 00:48:32.409 : Chapter 19 00:50:32.404 : Chapter 20 00:51:44.476 : Chapter 21 00:55:07.220 : Chapter 22 01:00:13.526 : Chapter 23 01:06:37.410 : Chapter 24 01:07:56.489 : Chapter 25 01:12:04.111 : Chapter 26 01:15:03.540 : Chapter 27 01:19:24.926 : Chapter 28 01:24:13.214 : Chapter 29 01:26:41.029 : Chapter 30 01:28:06.364 : Chapter 31 01:30:30.007 : Chapter 32 01:33:54.629 : Chapter 33 01:37:22.086 : Chapter 34 01:41:08.520 : Chapter 35 01:43:15.147 : Chapter 36 01:45:36.121 : Chapter 37 01:46:36.598 : Chapter 38 01:49:30.188 : Chapter 39
[+] Скриншоты

Всего файлов в раздаче: 1 
Смертельное оружие 2.1989.BDRip-AVC_[New-team]_by_AVP_Studio.mkv1.46 GB

Похожие раздачи по запросу - Смертельное
Вчера magnet Смертельное оружие 4 / Lethal Weapon 4 (1998) BDRip 720p от New-Team | D, P, A 3.66 GB ↑ 0 ↓ 0
2024-05-17 magnet Смертельное оружие 4 / Lethal Weapon 4 (1998) BDRip-AVC от New-Team | D 1.77 GB ↑ 0 ↓ 0
2024-05-15 magnet Смертельное оружие 3 / Lethal weapon 3 (1992) BDRip-AVC от New-Team | D 1.46 GB ↑ 1 ↓ 0
2024-05-06 magnet Смертельное оружие / Lethal Weapon (1987) BDRip-AVC от New-Team | D 2.18 GB ↑ 0 ↓ 0
2024-05-06 magnet Смертельное оружие / Lethal Weapon (1987) BDRip 720p от New-Team | D, P, A 6.55 GB ↑ 0 ↓ 0

Кто качает (только для создателя раздачи и модераторов):
ПользовательIP:портОтдалПринялОстатокСидируетТоррент клиентОбновился
1 Аноним 37.215.63.13:16883 0.00 B 0.00 B 0.00 B да -UT3500- 07:05 2024-05-19

Комментарии


Зарегистрируйтесь чтобы добавить комментарий
Торрент клиент
byTorrent - программа для загрузки торрент-файлов.

Скачать byTorrent.exe (1,5 МБ)

Скачать byTorrent.zip (0,6 МБ)

Поддержи torrent.by
российских рублей
(300 российских рублей это 4$)

Обратная связь rss

End game ©