↑↓torrent.by
Поиск
Логин:  Регистрация
Пароль:

Снежные псы / Snow Dogs (2002) WEB-DLRip-AVC от DoMiNo | P | Open Matte

download Скачать торрент-файл   magnet Магнитная ссылка Размер: 2.18 GB Добавлен: 2024-05-14 11:00
Пиры будут получены из сети DHT
Последний сидер был замечен 2024-05-18 13:01
Информация о фильме Название: Снежные псы Оригинальное название: Snow Dogs Год выпуска: 2002 Жанр: комедия, приключения, семейный, спорт Режиссер: Брайан Левант В ролях: Кьюба Гудинг мл. (Ted Brooks), Джеймс Коберн (Thunder Jack), Сиско (Dr. Rupert Brooks), Нишелль Николс (Amelia), М. Эммет Уолш (George), Грэм Грин (Peter Yellowbear), Брайан Дойл-Мюррей (Ernie), Джоанна Бакалсо (Barb), Жан Мишель Паре (Olivier), Майкл Болтон (играет самого себя - Special Appearance), Джейсон Пульотт (Sneed Brother #1), Дэвид Бойс (Sneed Brother #2) О фильме: Тед Брукс - самый известный дантист с Майами. Работа идет полным ходом, желать молодому парню, кажется, нечего. Но однажды он получает уведомление о том, что какая-то женщина по имени Люси включила его в свое предсмертное завещание, а теперь ему полагается доля наследства. MPAA: PG - Рекомендуется присутствие родителей Страна: Канада, США Студия: Galapagos Productions, Kerner Entertainment Company, Walt Disney Pictures Продолжительность: 01:39:31 Перевод: Профессиональный (многоголосый, закадровый) Файл Качество: WEB-DLRip-AVC | Open Matte Формат: Matroska Видео: 1024x576 at 23.976 fps, High@L4.1, ~2752 kbps Аудио#1: Russian: 48 kHz, AC3, 2.0 (L,R) ch, ~192 kbps avg |Многоголосый закадровый, R5| Аудио#2: Russian: 48 kHz, AC3, 2.0 (L,R) ch, ~192 kbps avg |Многоголосый закадровый, ОРТ| Субтитры: Russian (на пропущенные места дорожки ОРТ, Full, iTunes), английские (English, SDH, Amazon) ***Релиз от: -=DoMiNo=- *** Open Matte-версия фильма имеет большее наполнение кадра по сравнению с Blu-ray.
[+] M/IGeneral Unique ID : 311831414050811993318064889196471337068 (0xEA988BB9081377312DCE4B7BB547406C) Complete name : D:КИНОСнежные псы.(2002).WEB_DLRIP-AVC..mkv Format : Matroska Format version : Version 4 / Version 2 File size : 2.18 GiB Duration : 1 h 39 min Overall bit rate : 3 139 kb/s Movie name : Снежные псы Deion : Тед Брукс - самый известный дантист с Майами. Работа идет полным ходом, желать молодому парню, кажется, нечего. Но однажды он получает уведомление о том, что какая-то женщина по имени Люси включила его в свое предсмертное завещание, а теперь ему полагается доля наследства. Writing application : XviD4PSP 7.0.428 DAILY Writing library : Lavf57.71.100 ErrorDetectionType : Per level 1 Attachments : poster.jpg COMPOSER : Джон Дебни COUNTRY : Канада, США DATE : 2002 DIRECTOR : Брайан Левант ENCODING_INFO : MATROSKA,WEBM > MKV Пользовательский / H264 > X264 VBR-2P 2752kbps Пользовательский / AC3 > COPY Безопасное / AC3 > COPY Безопасное GENRE : комедия, приключения, семейный, спорт HD_VIDEO : 1 IMDB_RATING : 5.10 ITUNEXTC : mpaa|PG|200| Language : und MEDIA_TYPE : 9 ORIGINAL_TITLE : Snow Dogs PRODUCER : Джордан Кернер, Кэйси Грант, Эллисон А. Милликэн, Крис Уайтакер RATING : 7.133 WRITER : Джим Кауф, Томми Свердлоу, Майкл Голдберг, Марк Гибсон, Филип Хэлприн, Гари Полсен Video ID : 1 Format : AVC Format/Info : Advanced Video Codec Format profile : High@L4.1 Format settings : CABAC / 11 Ref Frames Format settings, CABAC : Yes Format settings, ReFrames : 11 frames Codec ID : V_MPEG4/ISO/AVC Duration : 1 h 39 min Bit rate : 2 752 kb/s Width : 1 024 pixels Height : 576 pixels Display aspect ratio : 16:9 Frame rate mode : Constant Frame rate : 23.976 (24000/1001) FPS Color space : YUV Chroma subsampling : 4:2:0 Bit depth : 8 bits Scan type : Progressive Bits/(Pixel*Frame) : 0.195 Stream size : 1.87 GiB (86%) Title : RIP_BY_-=DoMiNo=- Writing library : x264 core 152 r2851M ba24899 Encoding settings : cabac=1 / ref=11 / deblock=1:-3:-3 / analyse=0x3:0x133 / me=umh / subme=11 / psy=1 / psy_rd=1.00:0.05 / mixed_ref=1 / me_range=32 / chroma_me=1 / trellis=2 / 8x8dct=1 / cqm=0 / deadzone=21,11 / fast_pskip=0 / chroma_qp_offset=-3 / threads=5 / lookahead_threads=1 / sliced_threads=0 / nr=0 / decimate=1 / interlaced=0 / bluray_compat=0 / constrained_intra=0 / bframes=12 / b_pyramid=2 / b_adapt=2 / b_bias=0 / direct=3 / weightb=1 / open_gop=0 / weightp=2 / keyint=240 / keyint_min=24 / scenecut=40 / intra_refresh=0 / rc=2pass / mbtree=0 / bitrate=2752 / ratetol=1.0 / qcomp=0.70 / qpmin=0 / qpmax=69 / qpstep=4 / cplxblur=20.0 / qblur=0.5 / ip_ratio=1.40 / pb_ratio=1.30 / aq=1:1.00 Language : English Default : Yes Forced : No Color range : Limited Color primaries : BT.709 Transfer characteristics : BT.709 Matrix coefficients : BT.709 Audio #1 ID : 2 Format : AC-3 Format/Info : Audio Coding 3 Codec ID : A_AC3 Duration : 1 h 39 min Bit rate mode : Constant Bit rate : 192 kb/s Channel(s) : 2 channels Channel positions : Front: L R Sampling rate : 48.0 kHz Frame rate : 31.250 FPS (1536 SPF) Bit depth : 16 bits Compression mode : Lossy Stream size : 137 MiB (6%) Title : AC3 2.0 192Kbps (Профессиональный, многоголосый - R5) Language : Russian Service kind : Complete Main Default : Yes Forced : No Audio #2 ID : 3 Format : AC-3 Format/Info : Audio Coding 3 Codec ID : A_AC3 Duration : 1 h 39 min Bit rate mode : Constant Bit rate : 192 kb/s Channel(s) : 2 channels Channel positions : Front: L R Sampling rate : 48.0 kHz Frame rate : 31.250 FPS (1536 SPF) Bit depth : 16 bits Compression mode : Lossy Stream size : 137 MiB (6%) Title : AC3 2.0 192Kbps (Профессиональный, многоголосый - ОРТ) Language : Russian Service kind : Complete Main Default : No Forced : No Text #1 ID : 4 Format : UTF-8 Codec ID : S_TEXT/UTF8 Codec ID/Info : UTF-8 Plain Text Title : На пропущенные места дорожки ОРТ Language : Russian Default : Yes Forced : No Text #2 ID : 5 Format : UTF-8 Codec ID : S_TEXT/UTF8 Codec ID/Info : UTF-8 Plain Text Title : Полные, iTunes Language : Russian Default : No Forced : No Text #3 ID : 6 Format : UTF-8 Codec ID : S_TEXT/UTF8 Codec ID/Info : UTF-8 Plain Text Title : Полные, SDH, Amazon Language : English Default : No Forced : No
[+] Скриншоты

Всего файлов в раздаче: 1 
Снежные псы.(2002).WEB_DLRIP-AVC.[-=DoMiNo=-].mkv2.18 GB

Похожие раздачи по запросу - Снежные
2024-05-14 magnet Снежные псы / Snow Dogs (2002) BDRip-AVC от msltel | P, A 4.12 GB ↑ 0 ↓ 0
2024-05-14 magnet Снежные псы / Snow Dogs (2002) BDRip 720p от msltel | P, A 7.19 GB ↑ 0 ↓ 0

Комментарии


Зарегистрируйтесь чтобы добавить комментарий
Торрент клиент
byTorrent - программа для загрузки торрент-файлов.

Скачать byTorrent.exe (1,5 МБ)

Скачать byTorrent.zip (0,6 МБ)

Поддержи torrent.by
российских рублей
(300 российских рублей это 4$)

Обратная связь rss

End game ©