↑↓torrent.by
Поиск
Логин:  Регистрация
Пароль:

Красавчик 2 / Rabbit Without Ears 2 / Zweiohrkuken (2009) BDRip 1080p от FREEISLAND

download Скачать торрент-файл   magnet Магнитная ссылка Размер: 7.95 GB Раздают: 1 Качают: 0 Добавлен: 2024-05-14 11:00
Пиры будут получены из сети DHT
Последний сидер был замечен сегодня в 14:52
Красавчик 2Zweiohrkuken Год выпуска: 2009 Страна: Германия Жанр: мелодрама, комедия Продолжительность: 02:04:25 Перевод: Профессиональный (дублированный) Субтитры: Russian , German , English (UTF-8) Режиссер: Тиль Швайгер В ролях: Тиль Швайгер / Til Schweiger (Ludo Dekker), Нора Чирнер / Nora Tschirner (Anna), Маттиас Швайгхефер / Matthias Schweighofer (Moritz), Эмма Швайгер / Emma Schweiger (в титрах: Emma Tiger Schweiger) (Cheyenne-Blue), Кен Дюкен / Ken Duken (Ralf), Эдита Маловцик / Edita Malovcic (Marie), Пега Феридони / Pegah Ferydoni (Lana), Уве Оксенкнехт / Uwe Ochsenknecht (Dr. Eisenberger), Хайнер Лаутербах / Heiner Lauterbach (Herb), Томас Хайнце / Thomas Heinze (Schonheits-Chirurg) Описание: Анна и Лудо Декер уже два года как живут вместе. За это время они успели вкусить все прелести семейного быта. Брошенные под кровать носки, немытая посуда, непрезентабельный «домашний» — полный «классический набор», не украшающий совместную жизнь. И тут, в и так не простые отношения пары вторгаются бывшая подружка Лудо и старый приятель Анны… Рейтинг MPAA: Лицам до 17 лет обязательно присутствие взрослого Рейтинг ВКИП: для детей старше 16 лет Качество: BDRip 1080p Формат: MKV Видео кодек: H.264 (AVC) Аудио кодеk: AC3 Видео: 1920x816 (2.35:1), 23.976 fps, AVC, 8 059 Kbps Аудио#1: AC3, 640 Kbps, 48.0 KHz, 6 ch, RUS Dub Аудио #2: AC3, 448 Kbps, 48.0 KHz, 6 ch, GER
[+] МедиаИнфо x264 : frame I:2064 Avg QP:19.18 size:150004 x264 : frame P:37910 Avg QP:20.17 size: 71219 x264 : frame B:139018 Avg QP:22.39 size: 32090 General Unique ID : 187669380686186109045045225979778754347 (0x8D2FCED87C66C451AC119103DC08E72B) Complete name : Rabbit Without Ears 2(2009)1080p.F-HD.mkv Format : Matroska Format version : Version 4 / Version 2 File size : 7.95 GiB Duration : 2h 4mn Overall bit rate : 9 146 Kbps Movie name : FREEISLAHD Encoded date : UTC 2013-04-30 03:45:27 Writing application : mkvmerge v6.2.0 ('Promised Land') built on Apr 28 2013 12:22:01 Writing library : libebml v1.3.0 + libmatroska v1.4.0 Video ID : 1 Format : AVC Format/Info : Advanced Video Codec Format profile : High@L4.1 Format settings, CABAC : Yes Format settings, ReFrames : 4 frames Codec ID : V_MPEG4/ISO/AVC Duration : 2h 4mn Bit rate : 8 059 Kbps Width : 1 920 pixels Height : 816 pixels Display aspect ratio : 2.35:1 Frame rate mode : Constant Frame rate : 23.976 fps Color space : YUV Chroma subsampling : 4:2:0 Bit depth : 8 bits Scan type : Progressive Bits/(Pixel*Frame) : 0.215 Stream size : 6.85 GiB (86%) Writing library : x264 core 132 r2309kMod 3b1f1f7 Encoding settings : cabac=1 / ref=4 / deblock=1:-3:-3 / analyse=0x3:0x113 / me=umh / subme=11 / psy=1 / fade_compensate=0.00 / psy_rd=0.85:0.00 / mixed_ref=1 / me_range=48 / chroma_me=1 / trellis=2 / 8x8dct=1 / cqm=0 / deadzone=21,11 / fast_pskip=0 / chroma_qp_offset=-2 / threads=6 / lookahead_threads=1 / sliced_threads=0 / nr=0 / decimate=1 / interlaced=0 / bluray_compat=0 / constrained_intra=0 / bframes=8 / b_pyramid=2 / b_adapt=2 / b_bias=0 / direct=3 / weightb=1 / open_gop=0 / weightp=2 / keyint=250 / keyint_min=23 / scenecut=40 / intra_refresh=0 / rc_lookahead=40 / rc=2pass / mbtree=0 / bitrate=8059 / ratetol=1.0 / qcomp=0.75 / qpmin=0 / qpmax=69 / qpstep=4 / cplxblur=20.0 / qblur=0.5 / vbv_maxrate=50000 / vbv_bufsize=62500 / nal_hrd=none / ip_ratio=1.40 / pb_ratio=1.30 / aq=1:0.70 Language : English Default : Yes Forced : No Color primaries : BT.709 Transfer characteristics : BT.709 Matrix coefficients : BT.709 Audio #1 ID : 2 Format : AC-3 Format/Info : Audio Coding 3 Mode extension : CM (complete main) Format settings, Endianness : Big Codec ID : A_AC3 Duration : 2h 4mn Bit rate mode : Constant Bit rate : 640 Kbps Channel(s) : 6 channels Channel positions : Front: L C R, Side: L R, LFE Sampling rate : 48.0 KHz Bit depth : 16 bits Compression mode : Lossy Stream size : 570 MiB (7%) Language : Russian Default : Yes Forced : No Audio #2 ID : 3 Format : AC-3 Format/Info : Audio Coding 3 Mode extension : CM (complete main) Format settings, Endianness : Big Codec ID : A_AC3 Duration : 2h 4mn Bit rate mode : Constant Bit rate : 448 Kbps Channel(s) : 6 channels Channel positions : Front: L C R, Side: L R, LFE Sampling rate : 48.0 KHz Bit depth : 16 bits Compression mode : Lossy Stream size : 399 MiB (5%) Language : German Default : No Forced : No Text #1 ID : 4 Format : UTF-8 Codec ID : S_TEXT/UTF8 Codec ID/Info : UTF-8 Plain Text Language : Russian Default : No Forced : No Text #2 ID : 5 Format : UTF-8 Codec ID : S_TEXT/UTF8 Codec ID/Info : UTF-8 Plain Text Language : German Default : No Forced : No Text #3 ID : 6 Format : UTF-8 Codec ID : S_TEXT/UTF8 Codec ID/Info : UTF-8 Plain Text Language : English Default : No Forced : No Menu 00:00:00.000 : en:00:00:00.000 00:07:43.296 : en:00:07:43.296 00:14:48.429 : en:00:14:48.429 00:20:40.781 : en:00:20:40.781 00:27:33.401 : en:00:27:33.401 00:34:28.900 : en:00:34:28.900 00:40:11.200 : en:00:40:11.200 00:48:04.840 : en:00:48:04.840 00:57:11.344 : en:00:57:11.344 01:04:27.572 : en:01:04:27.572 01:10:15.085 : en:01:10:15.085 01:17:13.545 : en:01:17:13.545 01:24:18.928 : en:01:24:18.928 01:31:10.214 : en:01:31:10.214 01:36:28.657 : en:01:36:28.657 01:43:11.977 : en:01:43:11.977 01:51:27.305 : en:01:51:27.305 01:58:09.874 : en:01:58:09.874
[+] Скриншоты
Релиз от:

Всего файлов в раздаче: 1 
Rabbit Without Ears 2(2009)1080p.F-HD.mkv7.95 GB

Похожие раздачи по запросу - Красавчик
2024-05-14 magnet Красавчик / Keinohrhasen (2007) BDRip 1080p от FREEISLAND | D 7.92 GB ↑ 1 ↓ 0

Комментарии


Зарегистрируйтесь чтобы добавить комментарий
Торрент клиент
byTorrent - программа для загрузки торрент-файлов.

Скачать byTorrent.exe (1,5 МБ)

Скачать byTorrent.zip (0,6 МБ)

Поддержи torrent.by
российских рублей
(300 российских рублей это 4$)

Обратная связь rss

End game ©