↑↓torrent.by
Поиск
Логин:  Регистрация
Пароль:

Miro Quartet - Home [24-bit Hi-Res] (2024) FLAC

download Скачать торрент-файл   magnet Магнитная ссылка Размер: 1.28 GB Добавлен: 2024-05-14 17:00
Пиры будут получены из сети DHT
Последний сидер был замечен вчера в 12:33
Название: Home Исполнитель: Miro Quartet Год: 2024 Жанр: Classical, Chamber-Music, Quartets Издатель (лейбл): PENTATONE Продолжительность: 01:06:18 Формат/Кодек: FLAC Тип рипа: Tracks + booklet Битрейт аудио: Lossless Разрядность: 24 Bit/96 kHz
[+] Трек-лист 01. Home: Warm, With Rubato (00:06:02) 02. Home: Faster, Refreshed (00:03:38) 03. Home: Dangerously Fast (00:07:16) 04. Quartet No. 1: Ii. Molto Adagio (00:06:28) 05. Microfictions : I. Under The Hot Sun… (00:03:07) 06. Microfictions : Ii. The Photographs Smeared… (00:03:57) 07. Microfictions : Iii. The Summer Storm Laughed… (00:03:05) 08. Microfictions : Iii & 1/2. Between The Third And Fourth... (00:00:17) 09. Microfictions : Iv. The Complete Taxonomy… (00:03:12) 10. Microfictions : V. Waking Up On The Early Side… (00:01:47) 11. Microfictions : Vi. The Mountains Folded In… (00:03:20) 12. Striпg Quartet In B Minor, Op. 11: I. Molto Allegro E Appassionato (00:08:16) 13. Striпg Quartet In B Minor, Op. 11: Ii. Molto Adagio (00:09:38) 14. Striпg Quartet In B Minor, Op. 11: Iii. Molto Allegro (Come Prima) - Presto (00:02:36) 15. Over The Rainbow (Arr. For Striпg Quartet By William Ryden) (00:03:39)
[+] DRM foobar2000 1.5.5 / Замер динамического диапазона (DR) 1.1.1 ------------------------------------------------------------------------------- Анализ: Miro Quartet / Home -------------------------------------------------------------------------------- DR Пики RMS Продолжительность трека -------------------------------------------------------------------------------- DR13 -0.20 дБ -19.51 дБ 6:02 01-Home: Warm, With Rubato DR11 -0.83 дБ -17.61 дБ 3:38 02-Home: Faster, Refreshed DR14 -0.63 дБ -19.44 дБ 7:16 03-Home: Dangerously Fast DR14 -3.01 дБ -23.08 дБ 6:28 04-Quartet No. 1: Ii. Molto Adagio DR12 -0.64 дБ -20.48 дБ 3:07 05-Microfictions : I. Under The Hot Sun… DR12 -0.31 дБ -19.41 дБ 3:57 06-Microfictions : Ii. The Photographs Smeared… DR12 -0.20 дБ -17.94 дБ 3:05 07-Microfictions : Iii. The Summer Storm Laughed… DR11 -15.42 дБ -31.36 дБ 0:17 08-Microfictions : Iii & 1/2. Between The Third And Fourth... DR13 -1.23 дБ -21.11 дБ 3:12 09-Microfictions : Iv. The Complete Taxonomy… DR12 -0.20 дБ -19.08 дБ 1:47 10-Microfictions : V. Waking Up On The Early Side… DR14 -0.20 дБ -21.03 дБ 3:20 11-Microfictions : Vi. The Mountains Folded In… DR14 -0.20 дБ -18.26 дБ 8:16 12-Striпg Quartet In B Minor, Op. 11: I. Molto Allegro E Appassionato DR15 -0.39 дБ -23.43 дБ 9:38 13-Striпg Quartet In B Minor, Op. 11: Ii. Molto Adagio DR13 -0.20 дБ -18.19 дБ 2:36 14-Striпg Quartet In B Minor, Op. 11: Iii. Molto Allegro (Come Prima) - Presto DR13 -3.61 дБ -22.79 дБ 3:39 15-Over The Rainbow (Arr. For Striпg Quartet By William Ryden) -------------------------------------------------------------------------------- Количество треков: 15 Реальные значения DR: DR13 Частота: 96000 Гц Каналов: 2 Разрядность: 24 Битрейт: 2684 кбит/с Кодек: FLAC ================================================================================
Время раздачи: 24/7 (минимум до появления первых 3-5 скачавших, на раздачи не возвращаюсь) Первое правило участника файлообмена: "Скачал сам - дай скачать другому!"

Всего файлов в раздаче: 17 
01. Warm, with rubato.flac118.85 MB
02. Faster, refreshed.flac73.19 MB
03. Dangerously fast.flac147.07 MB
04. Quartet No. 1 II. Molto adagio.flac122.38 MB
05. I. Under the hot sun….flac59.67 MB
06. II. The photographs smeared….flac76.50 MB
07. III. The summer storm laughed….flac63.21 MB
08. III & 12. Between the third and fourth.flac5.07 MB
09. IV. The complete taxonomy….flac62.19 MB
10. V. Waking up on the early side….flac35.66 MB
Показать все файлы

Комментарии


Зарегистрируйтесь чтобы добавить комментарий
Торрент клиент
byTorrent - программа для загрузки торрент-файлов.

Скачать byTorrent.exe (1,5 МБ)

Скачать byTorrent.zip (0,6 МБ)

Поддержи torrent.by
российских рублей
(300 российских рублей это 4$)

Обратная связь rss

End game ©