↑↓torrent.by
Поиск
Логин:  Регистрация
Пароль:

Brad Mehldau - Après Fauré [24-bit Hi-Res] (2024) FLAC

download Скачать торрент-файл   magnet Магнитная ссылка Размер: 719.65 MB Добавлен: 2024-05-14 17:00
Пиры будут получены из сети DHT
Последний сидер был замечен 2024-05-16 00:46
Название: Après Fauré Исполнитель: Brad Mehldau Год: 2024 Жанр: Jazz Издатель (лейбл): Nonesuch Продолжительность: 00:42:52 Формат/Кодек: FLAC Тип рипа: Tracks Битрейт аудио: Lossless Разрядность: 24 Bit/96 kHz
[+] Трек-лист 01. Nocturne No. 13 In B Minor, Op. 119 (1921) (00:06:28) 02. Nocturne No. 4 In E-Flat Major, Op. 36 (C. 1884) (00:06:40) 03. Nocturne No. 12 In E Minor, Op. 107 (1915) (00:06:20) 04. Prelude (00:03:31) 05. Caprice (00:03:40) 06. Nocturne (00:02:43) 07. Vision (00:02:03) 08. Nocturne No. 7 In C-Sharp Minor, Op. 74 (1898) (00:08:40) 09. Piano Quartet No. 2 In G Minor, Op. 45 (C. 1887): Iii. Adagio Non Troppo (Extract) (00:02:47)
[+] DRM foobar2000 1.5.5 / Замер динамического диапазона (DR) 1.1.1 ------------------------------------------------------------------------------- Анализ: Brad Mehldau / Après Fauré -------------------------------------------------------------------------------- DR Пики RMS Продолжительность трека -------------------------------------------------------------------------------- DR10 -0.20 дБ -14.56 дБ 6:28 01-Nocturne No. 13 In B Minor, Op. 119 (1921) DR13 -0.20 дБ -17.71 дБ 6:40 02-Nocturne No. 4 In E-Flat Major, Op. 36 (C. 1884) DR10 -0.20 дБ -14.06 дБ 6:20 03-Nocturne No. 12 In E Minor, Op. 107 (1915) DR13 -0.20 дБ -19.62 дБ 3:31 04-Prelude DR10 -0.20 дБ -14.85 дБ 3:40 05-Caprice DR12 -0.42 дБ -17.71 дБ 2:43 06-Nocturne DR10 -0.20 дБ -14.49 дБ 2:03 07-Vision DR12 -0.20 дБ -16.25 дБ 8:40 08-Nocturne No. 7 In C-Sharp Minor, Op. 74 (1898) DR15 -1.42 дБ -23.07 дБ 2:47 09-Piano Quartet No. 2 In G Minor, Op. 45 (C. 1887): Iii. Adagio Non Troppo (Extract) -------------------------------------------------------------------------------- Количество треков: 9 Реальные значения DR: DR12 Частота: 96000 Гц Каналов: 2 Разрядность: 24 Битрейт: 2257 кбит/с Кодек: FLAC ================================================================================
Время раздачи: 24/7 (минимум до появления первых 3-5 скачавших, на раздачи не возвращаюсь) Первое правило участника файлообмена: "Скачал сам - дай скачать другому!"

Всего файлов в раздаче: 10 
01. Nocturne No. 13 in B Minor, Op. 119 (1921).flac109.58 MB
02. Nocturne No. 4 in E-Flat Major, Op. 36 (c. 1884).flac110.92 MB
03. Nocturne No. 12 in E Minor, Op. 107 (1915).flac107.85 MB
04. Prelude.flac58.29 MB
05. Caprice.flac62.22 MB
06. Nocturne.flac45.19 MB
07. Vision.flac35.40 MB
08. Nocturne No. 7 in C-Sharp Minor, Op. 74 (1898).flac145.11 MB
09. Piano Quartet No. 2 in G Minor, Op. 45 (c. 1887) III. Adagio non troppo (Extract).flac45.00 MB
cover.jpg74.96 kB

Похожие раздачи по запросу - Brad
2024-05-14 magnet Brad Mehldau - After Bach II [24-bit Hi-Res] (2024) FLAC 1.22 GB ↑ 0 ↓ 0

Комментарии


Зарегистрируйтесь чтобы добавить комментарий
Торрент клиент
byTorrent - программа для загрузки торрент-файлов.

Скачать byTorrent.exe (1,5 МБ)

Скачать byTorrent.zip (0,6 МБ)

Поддержи torrent.by
российских рублей
(300 российских рублей это 4$)

Обратная связь rss

End game ©