↑↓torrent.by
Поиск
Логин:  Регистрация
Пароль:

Chet Atkins - Picks On Jerry Reed [24-bit Hi-Res, Remastered] (1974/2024) FLAC

download Скачать торрент-файл   magnet Магнитная ссылка Размер: 1.14 GB Добавлен: 2024-05-14 17:00
Пиры будут получены из сети DHT
Последний сидер был замечен 2024-05-18 23:35
Название: Picks On Jerry Reed (Remastered) Исполнитель: Chet Atkins Год: 1974/2024 Жанр: Blues, Country, Folk Издатель (лейбл): RCA Victor Продолжительность: 00:26:55 Формат/Кодек: FLAC Тип рипа: Tracks Битрейт аудио: Lossless Разрядность: 24 Bit/192 kHz
[+] Трек-лист 01. I'll Say She Does (00:02:34) 02. East Wind (00:02:55) 03. Funky Junk (00:02:15) 04. Remembering (00:02:45) 05. Down Home (00:02:41) 06. Baby's Coming Home (00:02:24) 07. The Early Dawn (La Madrugada) (00:02:26) 08. Steeplechase Lane (00:02:27) 09. Mister Lucky (00:04:03) 10. Squirrely (00:02:25)
[+] DRM foobar2000 1.5.5 / Замер динамического диапазона (DR) 1.1.1 ------------------------------------------------------------------------------- Анализ: Chet Atkins / Picks On Jerry Reed -------------------------------------------------------------------------------- DR Пики RMS Продолжительность трека -------------------------------------------------------------------------------- DR11 -2.31 дБ -15.56 дБ 2:34 01-I'll Say She Does DR12 -0.20 дБ -15.45 дБ 2:55 02-East Wind DR13 -0.02 дБ -14.98 дБ 2:15 03-Funky Junk DR10 -3.01 дБ -15.32 дБ 2:45 04-Remembering DR12 -0.59 дБ -17.06 дБ 2:41 05-Down Home DR12 -0.50 дБ -15.36 дБ 2:24 06-Baby's Coming Home DR12 -2.19 дБ -17.12 дБ 2:26 07-The Early Dawn (La Madrugada) DR12 0.00 дБ -15.73 дБ 2:27 08-Steeplechase Lane DR12 0.00 дБ -15.18 дБ 4:03 09-Mister Lucky DR12 0.00 дБ -13.12 дБ 2:25 10-Squirrely -------------------------------------------------------------------------------- Количество треков: 10 Реальные значения DR: DR12 Частота: 192000 Гц Каналов: 2 Разрядность: 24 Битрейт: 6101 кбит/с Кодек: FLAC ================================================================================
Время раздачи: 24/7 (минимум до появления первых 3-5 скачавших, на раздачи не возвращаюсь) Первое правило участника файлообмена: "Скачал сам - дай скачать другому!"

Всего файлов в раздаче: 11 
01. I'll Say She Does.flac112.40 MB
02. East Wind.flac125.65 MB
03. Funky Junk.flac97.40 MB
04. Remembering.flac118.94 MB
05. Down Home.flac115.93 MB
06. Baby's Coming Home.flac103.79 MB
07. The Early Dawn.flac103.27 MB
08. Steeplechase Lane.flac105.61 MB
09. Mister Lucky.flac174.10 MB
10. Squirrely.flac105.89 MB
Показать все файлы

Комментарии


Зарегистрируйтесь чтобы добавить комментарий
Торрент клиент
byTorrent - программа для загрузки торрент-файлов.

Скачать byTorrent.exe (1,5 МБ)

Скачать byTorrent.zip (0,6 МБ)

Поддержи torrent.by
российских рублей
(300 российских рублей это 4$)

Обратная связь rss

End game ©