↑↓torrent.by
Поиск
Логин:  Регистрация
Пароль:

Злодей / Villain (1971) BDRip 1080p | P

download Скачать торрент-файл   magnet Магнитная ссылка Размер: 8.15 GB Добавлен: 2024-05-14 17:00
Пиры будут получены из сети DHT
Последний сидер был замечен 2024-06-14 01:14
Информация о фильме Название: Злодей Оригинальное название: Villain Год выхода: 1971 Жанр: Триллер, драма, криминал Режиссер: Майкл Тачнер / Michael Tuchner В ролях: Ричард Бёртон, Иэн Макшейн, Найджел Дэвенпорт, Дональд Синден, Файона Льюис, Т.П. МакКенна, Джосс Экленд, Кэтлин Несбитт, Элизабет Найт, Колин Уэлланд, Стефен Шеппард, Шерил Холл, Майкл Роббинс, Брук Уильямс, Дэвид Уэбб, Энтони Сагар, Лесли Скофилд, Джеймс Коссинс, Дель Хенни, Тони Шелби, Джон Халлам, Клайв Фрэнсис, Годфри Джеймс, Ширли Кейн О фильме: По роману Джеймса Барлоу 1968 года «Бремя доказательства». Вик Дэйкин бандит и рэкетир, который наводит страх на всех с кем имеет дело. Попытки полиции посадить его разбиваются о нежелании запуганных очевидцев свидетельствовать против него. Но жадность сгубившая многих не обходит стороной и Вика. Ему подворачивается непривычное для него, но очень прибыльное дело, ограбление инкассаторской машины перевозящей зарплату рабочих. Вик разрабатывает план операции, но при ограблении происходит незапланированное... Страна: Великобритания Студия: Anglo-EMI, Kastner/Ladd/Kanter Продолжительность: 01:37:56 Перевод : Профессиональный (многоголосый, закадровый) 5 канал СПб Субтитры: английские, испанские Файл Тип релиза: BDRip 1080p Контейнер: MKV Видео: MPEG4/ISO/AVC Video (H264) 1920x816 11.3 Mbps 24fps Аудио 1: 48 kHz, AC3 Dolby Digital, 2/0 (L,R) ch, ~192 kbps (русский, 5 канал СПб) Аудио 2: 48 kHz, AC3 Dolby Digital, 2/0 (L,R) ch, ~192 kbps (английский) Формат субтитров: softsub (SRT), VobSub
[+] M/IGeneral Unique ID : 191089265174058965231244342846520216857 (0x8FC2742B406A088CA6A52DA4E09ACD19) Complete name : D:Andy GreenVillain.1971.BDRip.x264.1080p.mkv Format : Matroska Format version : Version 4 / Version 2 File size : 8.15 GiB Duration : 1h 37mn Overall bit rate : 11.9 Mbps Encoded date : UTC 2021-05-14 18:32:54 Writing application : mkvmerge v6.6.0 ('The Edge Of The In Between') built on Dec 1 2013 17:55:00 Writing library : libebml v1.3.0 + libmatroska v1.4.1 Video ID : 1 Format : AVC Format/Info : Advanced Video Codec Format profile : High@L4.1 Format settings, CABAC : Yes Format settings, ReFrames : 5 frames Codec ID : V_MPEG4/ISO/AVC Duration : 1h 37mn Bit rate : 11.3 Mbps Width : 1 920 pixels Height : 816 pixels Display aspect ratio : 2.35:1 Frame rate mode : Constant Frame rate : 24.000 fps Color space : YUV Chroma subsampling : 4:2:0 Bit depth : 8 bits Scan type : Progressive Bits/(Pixel*Frame) : 0.300 Stream size : 7.73 GiB (95%) Writing library : x264 core 159 r2991 1771b55 Encoding settings : cabac=1 / ref=5 / deblock=1:-2:-2 / analyse=0x3:0x133 / me=umh / subme=10 / psy=1 / psy_rd=1.00:0.15 / mixed_ref=1 / me_range=24 / chroma_me=1 / trellis=2 / 8x8dct=1 / cqm=0 / deadzone=21,11 / fast_pskip=1 / chroma_qp_offset=-3 / threads=6 / lookahead_threads=1 / sliced_threads=0 / nr=0 / decimate=1 / interlaced=0 / bluray_compat=0 / constrained_intra=0 / bframes=8 / b_pyramid=2 / b_adapt=2 / b_bias=0 / direct=3 / weightb=1 / open_gop=0 / weightp=2 / keyint=250 / keyint_min=24 / scenecut=40 / intra_refresh=0 / rc_lookahead=60 / rc=crf / mbtree=1 / crf=18.8 / qcomp=0.60 / qpmin=0 / qpmax=69 / qpstep=4 / ip_ratio=1.40 / aq=1:1.00 Language : English Default : Yes Forced : No Audio #1 ID : 2 Format : AC-3 Format/Info : Audio Coding 3 Mode extension : CM (complete main) Format settings, Endianness : Big Codec ID : A_AC3 Duration : 1h 37mn Bit rate mode : Constant Bit rate : 192 Kbps Channel(s) : 2 channels Channel positions : Front: L R Sampling rate : 48.0 KHz Frame rate : 31.250 fps (1536 spf) Compression mode : Lossy Stream size : 135 MiB (2%) Language : Russian Default : Yes Forced : No Audio #2 ID : 3 Format : AC-3 Format/Info : Audio Coding 3 Mode extension : CM (complete main) Format settings, Endianness : Big Codec ID : A_AC3 Duration : 1h 37mn Bit rate mode : Constant Bit rate : 192 Kbps Channel(s) : 2 channels Channel positions : Front: L R Sampling rate : 48.0 KHz Frame rate : 31.250 fps (1536 spf) Compression mode : Lossy Stream size : 135 MiB (2%) Language : English Default : No Forced : Yes Text #1 ID : 4 Format : UTF-8 Codec ID : S_TEXT/UTF8 Codec ID/Info : UTF-8 Plain Text Language : English Default : No Forced : No Text #2 ID : 5 Format : UTF-8 Codec ID : S_TEXT/UTF8 Codec ID/Info : UTF-8 Plain Text Title : English SDH Language : English Default : No Forced : No Text #3 ID : 6 Format : VobSub Muxing mode : zlib Codec ID : S_VOBSUB Codec ID/Info : Picture based subtitle format used on DVDs Title : English Vobsubs (SDH) Language : English Default : No Forced : No Text #4 ID : 7 Format : UTF-8 Codec ID : S_TEXT/UTF8 Codec ID/Info : UTF-8 Plain Text Language : Spanish Default : No Forced : No Menu 00:00:00.000 : en:Cpt. 01 00:07:06.833 : en:Cpt. 02 00:14:53.333 : en:Cpt. 03 00:23:51.125 : en:Cpt. 04 00:32:39.916 : en:Cpt. 05 00:40:24.541 : en:Cpt. 06 00:50:41.125 : en:Cpt. 07 00:56:49.625 : en:Cpt. 08 01:06:59.541 : en:Cpt. 09 01:14:42.166 : en:Cpt. 10 01:23:42.333 : en:Cpt. 11 01:31:28.958 : en:Cpt. 12
[+] Скриншоты

Всего файлов в раздаче: 1 
Villain.1971.BDRip.x264.1080p.mkv8.15 GB

Кто качает (только для создателя раздачи и модераторов): Локальные пиры отсутствуют

Комментарии


Зарегистрируйтесь чтобы добавить комментарий
Торрент клиент
byTorrent - программа для загрузки торрент-файлов.

Скачать byTorrent.exe (1,5 МБ)

Скачать byTorrent.zip (0,6 МБ)

Поддержи torrent.by
российских рублей
(300 российских рублей это 4$)

Обратная связь rss

End game ©