↑↓torrent.by
Поиск
Логин:  Регистрация
Пароль:

Brad Mehldau - After Bach II [24-bit Hi-Res] (2024) FLAC

download Скачать торрент-файл   magnet Магнитная ссылка Размер: 1.22 GB Добавлен: 2024-05-14 17:00
Пиры будут получены из сети DHT
Последний сидер был замечен 2024-05-14 20:21
Название: After Bach II Исполнитель: Brad Mehldau Год: 2024 Жанр: Jazz Издатель (лейбл): Nonesuch Продолжительность: 01:06:12 Формат/Кодек: FLAC Тип рипа: Tracks Битрейт аудио: Lossless Разрядность: 24 Bit/96 kHz
[+] Трек-лист 01. Prelude To Prelude (00:01:22) 02. Prelude No. 9 In E Major From The Well-Tempered Clavier, Book I, Bwv 854 (00:01:49) 03. Prelude No. 6 In D Minor From The Well-Tempered Clavier Book I, Bwv 851 (00:01:18) 04. After Bach: Toccata (00:14:42) 05. Partita For Keyboard No. 4 In D Major, Bwv 828: Ii. Allemande (00:08:11) 06. After Bach: Cavatina (00:05:17) 07. Prelude No. 20 In A Minor From The Well-Tempered Clavier Book I, Bwv 865 (00:01:07) 08. Between Bach (00:06:05) 09. Fugue No. 20 In A Minor From The Well-Tempered Clavier Book I, Bwv 865 (00:03:56) 10. Intermezzo (00:01:26) 11. Variations On Bach’s Goldberg Theme: Aria-Like (00:03:40) 12. Variations On Bach’s Goldberg Theme: Variation I, Minor 5/8 A (00:02:12) 13. Variations On Bach’s Goldberg Theme: Variation Ii, Minor 5/8 B (00:01:10) 14. Variations On Bach’s Goldberg Theme: Variation Iii, Major 7/4 (00:02:31) 15. Variations On Bach’s Goldberg Theme: Variation Iv, Breakbeat (00:01:41) 16. Variations On Bach’s Goldberg Theme: Variation V, Jazz (00:02:03) 17. Variations On Bach’s Goldberg Theme: Variation Vi, Finale (00:01:26) 18. Prelude No. 7 In E-Flat Major From The Well-Tempered Clavier Book I, Bwv 852 (00:03:59) 19. Postlude (00:02:17)
[+] DRM foobar2000 1.5.5 / Замер динамического диапазона (DR) 1.1.1 ------------------------------------------------------------------------------- Анализ: Brad Mehldau / After Bach Ii -------------------------------------------------------------------------------- DR Пики RMS Продолжительность трека -------------------------------------------------------------------------------- DR12 -3.71 дБ -20.07 дБ 1:22 01-Prelude To Prelude DR13 -2.26 дБ -20.27 дБ 1:49 02-Prelude No. 9 In E Major From The Well-Tempered Clavier, Book I, Bwv 854 DR11 -1.60 дБ -16.48 дБ 1:18 03-Prelude No. 6 In D Minor From The Well-Tempered Clavier Book I, Bwv 851 DR10 -0.25 дБ -14.12 дБ 14:42 04-After Bach: Toccata DR13 -2.23 дБ -18.51 дБ 8:11 05-Partita For Keyboard No. 4 In D Major, Bwv 828: Ii. Allemande DR13 -0.25 дБ -18.10 дБ 5:17 06-After Bach: Cavatina DR12 -3.14 дБ -17.58 дБ 1:07 07-Prelude No. 20 In A Minor From The Well-Tempered Clavier Book I, Bwv 865 DR12 -0.25 дБ -14.95 дБ 6:05 08-Between Bach DR12 -0.25 дБ -15.32 дБ 3:56 09-Fugue No. 20 In A Minor From The Well-Tempered Clavier Book I, Bwv 865 DR12 -1.38 дБ -19.71 дБ 1:26 10-Intermezzo DR12 -1.93 дБ -19.14 дБ 3:40 11-Variations On Bach’s Goldberg Theme: Aria-Like DR10 -0.20 дБ -13.88 дБ 2:12 12-Variations On Bach’s Goldberg Theme: Variation I, Minor 5/8 A DR10 -0.20 дБ -12.43 дБ 1:10 13-Variations On Bach’s Goldberg Theme: Variation Ii, Minor 5/8 B DR10 -0.20 дБ -12.88 дБ 2:31 14-Variations On Bach’s Goldberg Theme: Variation Iii, Major 7/4 DR12 -0.20 дБ -13.99 дБ 1:41 15-Variations On Bach’s Goldberg Theme: Variation Iv, Breakbeat DR12 -0.20 дБ -14.74 дБ 2:03 16-Variations On Bach’s Goldberg Theme: Variation V, Jazz DR9 -0.20 дБ -12.08 дБ 1:26 17-Variations On Bach’s Goldberg Theme: Variation Vi, Finale DR12 -2.58 дБ -18.35 дБ 3:59 18-Prelude No. 7 In E-Flat Major From The Well-Tempered Clavier Book I, Bwv 852 DR14 -3.04 дБ -23.07 дБ 2:17 19-Postlude -------------------------------------------------------------------------------- Количество треков: 19 Реальные значения DR: DR12 Частота: 96000 Гц Каналов: 2 Разрядность: 24 Битрейт: 2583 кбит/с Кодек: FLAC ================================================================================
Время раздачи: 24/7 (минимум до появления первых 3-5 скачавших, на раздачи не возвращаюсь) Первое правило участника файлообмена: "Скачал сам - дай скачать другому!"

Всего файлов в раздаче: 20 
01. Prelude to Prelude.flac25.75 MB
02. Prelude No. 9 in E Major from the Well-Tempered Clavier, Book I, BWV 854.flac34.29 MB
03. Prelude No. 6 in D Minor from the Well-Tempered Clavier Book I, BWV 851.flac25.41 MB
04. After Bach Toccata.flac287.80 MB
05. Partita for Keyboard No. 4 in D Major, BWV 828 II. Allemande.flac157.12 MB
06. After Bach Cavatina.flac101.14 MB
07. Prelude No. 20 in A Minor from the Well-Tempered Clavier Book I, BWV 865.flac21.61 MB
08. Between Bach.flac119.17 MB
09. Fugue No. 20 in A Minor from the Well-Tempered Clavier Book I, BWV 865.flac76.87 MB
10. Intermezzo.flac27.27 MB
Показать все файлы

Похожие раздачи по запросу - Brad
2024-05-14 magnet Brad Mehldau - Après Fauré [24-bit Hi-Res] (2024) FLAC 719.65 MB ↑ 0 ↓ 0

Кто качает (только для создателя раздачи и модераторов): Локальные пиры отсутствуют

Комментарии


Зарегистрируйтесь чтобы добавить комментарий
Торрент клиент
byTorrent - программа для загрузки торрент-файлов.

Скачать byTorrent.exe (1,5 МБ)

Скачать byTorrent.zip (0,6 МБ)

Поддержи torrent.by
российских рублей
(300 российских рублей это 4$)

Обратная связь rss

End game ©