↑↓torrent.by
Поиск
Логин:  Регистрация
Пароль:

Jordi Savall - Vivaldi: The Four Seasons [24-bit Hi-Res] (2024) FLAC

download Скачать торрент-файл   magnet Магнитная ссылка Размер: 2.08 GB Добавлен: 2024-05-14 17:00
Пиры будут получены из сети DHT
Последний сидер был замечен 2024-05-21 19:36
Название: Vivaldi: The Four Seasons Исполнитель: Jordi Savall Год: 2024 Жанр: Classical Издатель (лейбл): Alia Vox Продолжительность: 01:56:13 Формат/Кодек: FLAC Тип рипа: Tracks + booklet Битрейт аудио: Lossless Разрядность: 24 Bit/96 kHz
[+] Трек-лист CD 01: (01:02:28) 01. Violin Concerto No. 1 In E Major "Spring", Rv 269: I. Allegro (With Sonnet) (00:04:06) 02. Violin Concerto No. 1 In E Major "Spring", Rv 269: Ii. Largo E Pianissimo (With Sonnet) (00:02:45) 03. Violin Concerto No. 1 In E Major "Spring", Rv 269: Iii. Allegro (With Sonnet) (00:04:01) 04. Violin Concerto No. 2 In G Minor "Summer", Rv 315: I. Allegro Ma Non Molto (With Sonnet) (00:05:38) 05. Violin Concerto No. 2 In G Minor "Summer", Rv 315: Ii. Adagio (With Sonnet) (00:01:55) 06. Violin Concerto No. 2 In G Minor "Summer", Rv 315: Iii. Presto (With Sonnet) (00:03:10) 07. Violin Concerto No. 3 In F Major "Autumn", Rv 293: I. Allegro (With Sonnet) (00:05:26) 08. Violin Concerto No. 3 In F Major "Autumn", Rv 293: Ii. Adagio Molto (With Sonnet) (00:02:57) 09. Violin Concerto No. 3 In F Major "Autumn", Rv 293: Iii. Allegro (With Sonnet) (00:03:16) 10. Violin Concerto No. 4 In F Minor "Winter", Rv 297: I. Allegro Non Molto (With Sonnet) (00:03:36) 11. Violin Concerto No. 4 In F Minor "Winter", Rv 297: Ii. Largo (With Sonnet) (00:01:54) 12. Violin Concerto No. 4 In F Minor "Winter", Rv 297: Iii. Allegro (With Sonnet) (00:04:16) 13. Violin Concerto In F Major "Il Proteo O Sia Il Mondo Al Rovescio", Rv 544: I. Allegro (00:04:13) 14. Violin Concerto In F Major "Il Proteo O Sia Il Mondo Al Rovescio", Rv 544: Ii. Largo (00:02:39) 15. Violin Concerto In F Major "Il Proteo O Sia Il Mondo Al Rovescio", Rv 544: Iii. Allegro (00:03:28) 16. Violin Concerto In E-Flat Major "La Tempesta Di Mare", Rv 253: I. Presto (00:03:00) 17. Violin Concerto In E-Flat Major "La Tempesta Di Mare", Rv 253: Ii. Largo (00:02:17) 18. Violin Concerto In E-Flat Major "La Tempesta Di Mare", Rv 253: Iii. Presto (00:03:51) CD 02: (00:53:45) 01. Violin Concerto Op. 3, No. 10 In B Minor, Rv 580: I. Allegro (00:03:58) 02. Violin Concerto Op. 3, No. 10 In B Minor, Rv 580: Ii. Largo - Larghetto - Adagio - Largo (00:02:08) 03. Violin Concerto Op. 3, No. 10 In B Minor, Rv 580: Iii. Allegro (00:03:37) 04. Violin Concerto In B-Flat Major, Rv 583: Ii. Andante (00:04:11) 05. Violin Concerto No. 1 In E Major "Spring", Rv 269: I. Allegro (00:03:36) 06. Violin Concerto No. 1 In E Major "Spring", Rv 269: Ii. Largo E Pianissimo (00:02:35) 07. Violin Concerto No. 1 In E Major "Spring", Rv 269: Iii. Allegro (00:03:51) 08. Violin Concerto No. 2 In G Minor "Summer", Rv 315: I. Allegro Ma Non Molto (00:04:59) 09. Violin Concerto No. 2 In G Minor "Summer", Rv 315: Ii. Adagio (00:01:42) 10. Violin Concerto No. 2 In G Minor "Summer", Rv 315: Iii. Presto (00:03:02) 11. Violin Concerto No. 3 In F Major "Autumn", Rv 293: I. Allegro (00:05:05) 12. Violin Concerto No. 3 In F Major "Autumn", Rv 293: Ii. Adagio Molto (00:02:43) 13. Violin Concerto No. 3 In F Major "Autumn", Rv 293: Iii. Allegro (00:03:15) 14. Violin Concerto No. 4 In F Minor "Winter", Rv 297: I. Allegro Non Molto (00:03:33) 15. Violin Concerto No. 4 In F Minor "Winter", Rv 297: Ii. Largo (00:01:48) 16. Violin Concerto No. 4 In F Minor "Winter", Rv 297: Iii. Allegro (00:03:42)
[+] DRM foobar2000 1.5.5 / Замер динамического диапазона (DR) 1.1.1 ------------------------------------------------------------------------------- Анализ: Jordi Savall / Vivaldi: The Four Seasons -------------------------------------------------------------------------------- DR Пики RMS Продолжительность трека -------------------------------------------------------------------------------- DR15 -3.46 дБ -23.61 дБ 4:06 01-Violin Concerto No. 1 In E Major "Spring", Rv 269: I. Allegro (With Sonnet) DR15 -8.15 дБ -29.32 дБ 2:45 02-Violin Concerto No. 1 In E Major "Spring", Rv 269: Ii. Largo E Pianissimo (With Sonnet) DR12 -5.24 дБ -23.17 дБ 4:01 03-Violin Concerto No. 1 In E Major "Spring", Rv 269: Iii. Allegro (With Sonnet) DR14 -1.59 дБ -22.22 дБ 5:38 04-Violin Concerto No. 2 In G Minor "Summer", Rv 315: I. Allegro Ma Non Molto (With Sonnet) DR14 -6.42 дБ -29.29 дБ 1:55 05-Violin Concerto No. 2 In G Minor "Summer", Rv 315: Ii. Adagio (With Sonnet) DR13 -2.33 дБ -19.90 дБ 3:10 06-Violin Concerto No. 2 In G Minor "Summer", Rv 315: Iii. Presto (With Sonnet) DR14 -5.01 дБ -24.30 дБ 5:26 07-Violin Concerto No. 3 In F Major "Autumn", Rv 293: I. Allegro (With Sonnet) DR16 -9.04 дБ -33.67 дБ 2:57 08-Violin Concerto No. 3 In F Major "Autumn", Rv 293: Ii. Adagio Molto (With Sonnet) DR14 -2.64 дБ -21.56 дБ 3:16 09-Violin Concerto No. 3 In F Major "Autumn", Rv 293: Iii. Allegro (With Sonnet) DR14 -2.66 дБ -23.08 дБ 3:36 10-Violin Concerto No. 4 In F Minor "Winter", Rv 297: I. Allegro Non Molto (With Sonnet) DR11 -11.02 дБ -26.63 дБ 1:54 11-Violin Concerto No. 4 In F Minor "Winter", Rv 297: Ii. Largo (With Sonnet) DR13 -2.73 дБ -23.68 дБ 4:16 12-Violin Concerto No. 4 In F Minor "Winter", Rv 297: Iii. Allegro (With Sonnet) DR14 -3.43 дБ -23.81 дБ 4:13 13-Violin Concerto In F Major "Il Proteo O Sia Il Mondo Al Rovescio", Rv 544: I. Allegro DR13 -11.76 дБ -28.40 дБ 2:39 14-Violin Concerto In F Major "Il Proteo O Sia Il Mondo Al Rovescio", Rv 544: Ii. Largo DR14 -5.48 дБ -22.86 дБ 3:28 15-Violin Concerto In F Major "Il Proteo O Sia Il Mondo Al Rovescio", Rv 544: Iii. Allegro DR13 -5.86 дБ -23.30 дБ 3:00 16-Violin Concerto In E-Flat Major "La Tempesta Di Mare", Rv 253: I. Presto DR12 -11.21 дБ -29.08 дБ 2:17 17-Violin Concerto In E-Flat Major "La Tempesta Di Mare", Rv 253: Ii. Largo DR14 -5.55 дБ -24.22 дБ 3:51 18-Violin Concerto In E-Flat Major "La Tempesta Di Mare", Rv 253: Iii. Presto -------------------------------------------------------------------------------- Количество треков: 18 Реальные значения DR: DR14 Частота: 96000 Гц Каналов: 2 Разрядность: 24 Битрейт: 2643 кбит/с Кодек: FLAC ================================================================================ -------------------------------------------------------------------------------- Анализ: Jordi Savall / Vivaldi: The Four Seasons -------------------------------------------------------------------------------- DR Пики RMS Продолжительность трека -------------------------------------------------------------------------------- DR13 -4.94 дБ -22.81 дБ 3:58 01-Violin Concerto Op. 3, No. 10 In B Minor, Rv 580: I. Allegro DR15 -3.14 дБ -25.33 дБ 2:08 02-Violin Concerto Op. 3, No. 10 In B Minor, Rv 580: Ii. Largo - Larghetto - Adagio - Largo DR14 -3.38 дБ -21.87 дБ 3:37 03-Violin Concerto Op. 3, No. 10 In B Minor, Rv 580: Iii. Allegro DR13 -7.74 дБ -28.21 дБ 4:11 04-Violin Concerto In B-Flat Major, Rv 583: Ii. Andante DR14 -4.12 дБ -23.80 дБ 3:36 05-Violin Concerto No. 1 In E Major "Spring", Rv 269: I. Allegro DR14 -10.39 дБ -29.33 дБ 2:35 06-Violin Concerto No. 1 In E Major "Spring", Rv 269: Ii. Largo E Pianissimo DR12 -5.25 дБ -23.11 дБ 3:51 07-Violin Concerto No. 1 In E Major "Spring", Rv 269: Iii. Allegro DR14 -1.59 дБ -21.83 дБ 4:59 08-Violin Concerto No. 2 In G Minor "Summer", Rv 315: I. Allegro Ma Non Molto DR14 -6.42 дБ -29.41 дБ 1:42 09-Violin Concerto No. 2 In G Minor "Summer", Rv 315: Ii. Adagio DR13 -2.33 дБ -19.81 дБ 3:02 10-Violin Concerto No. 2 In G Minor "Summer", Rv 315: Iii. Presto DR13 -5.01 дБ -24.12 дБ 5:05 11-Violin Concerto No. 3 In F Major "Autumn", Rv 293: I. Allegro DR10 -17.28 дБ -34.31 дБ 2:43 12-Violin Concerto No. 3 In F Major "Autumn", Rv 293: Ii. Adagio Molto DR14 -2.65 дБ -21.76 дБ 3:15 13-Violin Concerto No. 3 In F Major "Autumn", Rv 293: Iii. Allegro DR13 -3.51 дБ -23.27 дБ 3:33 14-Violin Concerto No. 4 In F Minor "Winter", Rv 297: I. Allegro Non Molto DR11 -11.02 дБ -26.42 дБ 1:48 15-Violin Concerto No. 4 In F Minor "Winter", Rv 297: Ii. Largo DR13 -3.70 дБ -23.60 дБ 3:42 16-Violin Concerto No. 4 In F Minor "Winter", Rv 297: Iii. Allegro -------------------------------------------------------------------------------- Количество треков: 16 Реальные значения DR: DR13 Частота: 96000 Гц Каналов: 2 Разрядность: 24 Битрейт: 2420 кбит/с Кодек: FLAC ================================================================================
Время раздачи: 24/7 (минимум до появления первых 3-5 скачавших, на раздачи не возвращаюсь) Первое правило участника файлообмена: "Скачал сам - дай скачать другому!"

Всего файлов в раздаче: 36 
Disc 1\01. Violin Concerto No. 1 in E Major Spring, RV 269 I. Allegro (with Sonnet).flac76.23 MB
Disc 1\02. Violin Concerto No. 1 in E Major Spring, RV 269 II. Largo e pianissimo (with Sonnet).flac47.63 MB
Disc 1\03. Violin Concerto No. 1 in E Major Spring, RV 269 III. Allegro (with Sonnet).flac74.58 MB
Disc 1\04. Violin Concerto No. 2 in G Minor Summer, RV 315 I. Allegro ma non molto (with Sonnet).flac102.57 MB
Disc 1\05. Violin Concerto No. 2 in G Minor Summer, RV 315 II. Adagio (with Sonnet).flac32.73 MB
Disc 1\06. Violin Concerto No. 2 in G Minor Summer, RV 315 III. Presto (with Sonnet).flac61.57 MB
Disc 1\07. Violin Concerto No. 3 in F Major Autumn, RV 293 I. Allegro (with Sonnet).flac98.33 MB
Disc 1\08. Violin Concerto No. 3 in F Major Autumn, RV 293 II. Adagio molto (with Sonnet).flac49.89 MB
Disc 1\09. Violin Concerto No. 3 in F Major Autumn, RV 293 III. Allegro (with Sonnet).flac62.01 MB
Disc 1\10. Violin Concerto No. 4 in F Minor Winter, RV 297 I. Allegro non molto (with Sonnet).flac67.36 MB
Показать все файлы

Комментарии


Зарегистрируйтесь чтобы добавить комментарий
Торрент клиент
byTorrent - программа для загрузки торрент-файлов.

Скачать byTorrent.exe (1,5 МБ)

Скачать byTorrent.zip (0,6 МБ)

Поддержи torrent.by
российских рублей
(300 российских рублей это 4$)

Обратная связь rss

End game ©