↑↓torrent.by
Поиск
Логин:  Регистрация
Пароль:

Angus & Julia Stone - Cape Forestier [24-bit Hi-Res] (2024) FLAC

download Скачать торрент-файл   magnet Магнитная ссылка Размер: 533.08 MB Добавлен: 2024-05-14 17:00
Пиры будут получены из сети DHT
Последний сидер был замечен 2024-05-18 12:24
Название: Cape Forestier Исполнитель: Angus & Julia Stone Год: 2024 Жанр: Blues, Country, Folk Издатель (лейбл): Play It Again Sam Продолжительность: 00:45:20 Формат/Кодек: FLAC Тип рипа: Tracks Битрейт аудио: Lossless Разрядность: 24 Bit/48 kHz
[+] Трек-лист 01. Losing You (00:03:35) 02. Down To The Sea (00:03:20) 03. My Little Anchor (00:03:46) 04. Cape Forestier (00:03:53) 05. County Sign (00:05:52) 06. City Of Lights (00:03:58) 07. No Boat No Aeroplane (00:05:12) 08. The Wedding Song (00:03:17) 09. I Want You (00:02:55) 10. Somehow (00:04:42) 11. Sitting In Seoul (00:03:51) 12. The Wonder Of You (00:00:59)
[+] DRM foobar2000 1.5.5 / Замер динамического диапазона (DR) 1.1.1 ------------------------------------------------------------------------------ Анализ: Angus & Julia Stone / Cape Forestier -------------------------------------------------------------------------------- DR Пики RMS Продолжительность трека -------------------------------------------------------------------------------- DR4 -0.15 дБ -6.84 дБ 3:35 01-Losing You DR4 -0.15 дБ -6.86 дБ 3:20 02-Down To The Sea DR5 -1.11 дБ -8.48 дБ 3:46 03-My Little Anchor DR4 -0.15 дБ -6.67 дБ 3:53 04-Cape Forestier DR4 -0.15 дБ -5.75 дБ 5:52 05-County Sign DR6 -0.15 дБ -8.06 дБ 3:58 06-City Of Lights DR5 -0.15 дБ -8.05 дБ 5:12 07-No Boat No Aeroplane DR6 -0.15 дБ -9.28 дБ 3:17 08-The Wedding Song DR4 -0.15 дБ -5.85 дБ 2:55 09-I Want You DR7 -0.15 дБ -10.67 дБ 4:42 10-Somehow DR7 -0.15 дБ -11.63 дБ 3:51 11-Sitting In Seoul DR9 -0.15 дБ -13.80 дБ 0:59 12-The Wonder Of You -------------------------------------------------------------------------------- Количество треков: 12 Реальные значения DR: DR6 Частота: 48000 Гц Каналов: 2 Разрядность: 24 Битрейт: 1448 кбит/с Кодек: FLAC ================================================================================
Время раздачи: 24/7 (минимум до появления первых 3-5 скачавших, на раздачи не возвращаюсь) Первое правило участника файлообмена: "Скачал сам - дай скачать другому!"

Всего файлов в раздаче: 13 
01. Losing You.flac42.65 MB
02. Down To The Sea.flac40.44 MB
03. My Little Anchor.flac43.62 MB
04. Cape Forestier.flac47.83 MB
05. County Sign.flac67.24 MB
06. City Of Lights.flac47.98 MB
07. No Boat No Aeroplane.flac56.86 MB
08. The Wedding Song.flac36.73 MB
09. I Want You.flac37.47 MB
10. Somehow.flac53.93 MB
Показать все файлы

Комментарии


Зарегистрируйтесь чтобы добавить комментарий
Торрент клиент
byTorrent - программа для загрузки торрент-файлов.

Скачать byTorrent.exe (1,5 МБ)

Скачать byTorrent.zip (0,6 МБ)

Поддержи torrent.by
российских рублей
(300 российских рублей это 4$)

Обратная связь rss

End game ©