↑↓torrent.by
Поиск
Логин:  Регистрация
Пароль:

Министерство неджентльменских дел / The Ministry of Ungentlemanly Warfare (2024) UHD WEB-DL-HEVC 2160p | 4K | SDR | D, P2

download Скачать торрент-файл   magnet Магнитная ссылка Размер: 15.32 GB Раздают: 1 Качают: 0 Добавлен: 2024-05-14 17:00
Пиры будут получены из сети DHT
Последний сидер был замечен сегодня в 08:53
Название: Министерство неджентльменских дел Оригинальное название: The Ministry of Ungentlemanly Warfare Год выхода: 2024 Производство: США, Великобритания, Турция / Black Bear Pictures, Jerry Bruckheimer Films, Toff Guy Films, Red Sea Film Fund, C2 Motion Picture Group, Media Capital Technologies, Plus Studio Жанр: Боевик, драма, военный Перевод: Профессиональный дублированный, профессиональный двухголосый Продолжительность: 02:00:20 Режиссёр: Гай Ричи / Guy Ritchie В ролях: Генри Кавилл, Алан Ричсон, Рори Киннер, Генри Голдинг, Фредди Фокс, Эйса Гонсалес, Алекс Петтифер, Бабс Олусанмокун, Кэри Элвес, Хиро Файнс Тиффин Описание: 1942 год, Великобритания. Они - лучшие из лучших. Отпетые авантюристы и первоклассные спецы, привыкшие действовать в одиночку. Но когда на кону стоит судьба всего мира, им приходится объединиться в сверхсекретное боевое подразделение и отправиться на выполнение дерзкой миссии против нацистов. Теперь их дело - война, и вести они её будут совершенно не по-джентльменски. Формат: MKV Качество: WEB-DL 2160p Видео: MPEG-H HEVC / ~14,6 Мбит/с / 3840x1600 / 0.099/(Пиксели*Кадры) / 23,976fps Аудио 01: Е-AC3, 6 ch, 448 kbps | Русский, Dub | Мосфильм-Мастер | Аудио 02: Е-AC3, 6 ch, 448 kbps | Русский, MVO | Мосфильм-Мастер | Тифлокомментирование Аудио 03: Е-AC3, 6 ch, 448 kbps | Русский, DVO | Кубик в Кубе | Аудио 04: АС-3, 6 ch, 640 kbps | Русский, DVO | ViruseProject | Аудио 05: Е-AC3, 6 ch, 448 kbps | Казахский, Dub | The Kitchen Russia | Аудио 06: Е-AC3, 6 ch, 448 kbps | Узбекский, Dub | The Kitchen Russia | Аудио 07: Е-AC3+Atmos, 6 ch, 768 kbps | Original | Субтитры: Русские (Forced, Full), английские (Forced, Full) и другие Доп. информация: На видео присутствует английский хардсаб на немецкую и итальянскую речь
[+] MediainfoGeneral Unique ID : 318614011795060471605078453649029308977 (0xEFB2D39C2C07B4A272E1A48FBD6DA231) Complete name : E:The.Ministry.of.Ungentlemanly.Warfare.2024.2160p.WEB-DL.SDR.HEVC-Нечипорук.mkv Format : Matroska Format version : Version 4 File size : 15.3 GiB Duration : 2 h 0 min Overall bit rate : 18.2 Mb/s Frame rate : 23.976 FPS Movie name : The.Ministry.of.Ungentlemanly.Warfare.2024.2160p.WEB-DL.SDR.HEVC-Нечипорук Encoded date : 2024-05-13 18:22:33 UTC Writing application : mkvmerge v84.0 ('Sleeper') 64-bit Writing library : libebml v1.4.5 + libmatroska v1.7.1 Cover : Yes Attachments : cover.jpg Video ID : 1 Format : HEVC Format/Info : High Efficiency Video Coding Format profile : Main@L5@Main Codec ID : V_MPEGH/ISO/HEVC Duration : 2 h 0 min Bit rate : 14.6 Mb/s Width : 3 840 pixels Height : 1 600 pixels Display aspect ratio : 2.40:1 Frame rate mode : Constant Frame rate : 23.976 (24000/1001) FPS Color space : YUV Chroma subsampling : 4:2:0 Bit depth : 8 bits Bits/(Pixel*Frame) : 0.099 Stream size : 12.3 GiB (80%) Title : The.Ministry.of.Ungentlemanly.Warfare.2024.2160p.WEB-DL.SDR.HEVC-Нечипорук Language : English (US) Default : Yes Forced : No Color range : Limited Color primaries : BT.709 Transfer characteristics : BT.709 Matrix coefficients : BT.709 Audio #1 ID : 2 Format : E-AC-3 Format/Info : Enhanced AC-3 Commercial name : Dolby Digital Plus Codec ID : A_EAC3 Duration : 2 h 0 min Bit rate mode : Constant Bit rate : 448 kb/s Channel(s) : 6 channels Channel layout : L R C LFE Ls Rs Sampling rate : 48.0 kHz Frame rate : 31.250 FPS (1536 SPF) Compression mode : Lossy Stream size : 385 MiB (2%) Title : Дубляж Мосфильм-Мастер Language : Russian Service kind : Complete Main Default : Yes Forced : No Audio #2 ID : 3 Format : E-AC-3 Format/Info : Enhanced AC-3 Commercial name : Dolby Digital Plus Codec ID : A_EAC3 Duration : 2 h 0 min Bit rate mode : Constant Bit rate : 448 kb/s Channel(s) : 6 channels Channel layout : L R C LFE Ls Rs Sampling rate : 48.0 kHz Frame rate : 31.250 FPS (1536 SPF) Compression mode : Lossy Stream size : 385 MiB (2%) Title : Дубляж Мосфильм-Мастер Тифлокомментирование Language : Russian Service kind : Complete Main Default : No Forced : No Audio #3 ID : 4 Format : E-AC-3 Format/Info : Enhanced AC-3 Commercial name : Dolby Digital Plus Codec ID : A_EAC3 Duration : 2 h 0 min Bit rate mode : Constant Bit rate : 448 kb/s Channel(s) : 6 channels Channel layout : L R C LFE Ls Rs Sampling rate : 48.0 kHz Frame rate : 31.250 FPS (1536 SPF) Compression mode : Lossy Stream size : 385 MiB (2%) Title : DVO Кубик в Кубе Language : Russian Service kind : Complete Main Default : No Forced : No Audio #4 ID : 5 Format : AC-3 Format/Info : Audio Coding 3 Commercial name : Dolby Digital Codec ID : A_AC3 Duration : 2 h 0 min Bit rate mode : Constant Bit rate : 640 kb/s Channel(s) : 6 channels Channel layout : L R C LFE Ls Rs Sampling rate : 48.0 kHz Frame rate : 31.250 FPS (1536 SPF) Compression mode : Lossy Stream size : 551 MiB (4%) Title : DVO ViruseProject Language : Russian Service kind : Complete Main Default : No Forced : No Audio #5 ID : 6 Format : E-AC-3 Format/Info : Enhanced AC-3 Commercial name : Dolby Digital Plus Codec ID : A_EAC3 Duration : 2 h 0 min Bit rate mode : Constant Bit rate : 448 kb/s Channel(s) : 6 channels Channel layout : L R C LFE Ls Rs Sampling rate : 48.0 kHz Frame rate : 31.250 FPS (1536 SPF) Compression mode : Lossy Stream size : 385 MiB (2%) Title : Дубляж The Kitchen Russia Language : Kazakh Service kind : Complete Main Default : No Forced : No Audio #6 ID : 7 Format : E-AC-3 Format/Info : Enhanced AC-3 Commercial name : Dolby Digital Plus Codec ID : A_EAC3 Duration : 2 h 0 min Bit rate mode : Constant Bit rate : 448 kb/s Channel(s) : 6 channels Channel layout : L R C LFE Ls Rs Sampling rate : 48.0 kHz Frame rate : 31.250 FPS (1536 SPF) Compression mode : Lossy Stream size : 385 MiB (2%) Title : Dublyaj The Kitchen Russia Language : Uzbek Service kind : Complete Main Default : No Forced : No Audio #7 ID : 8 Format : E-AC-3 JOC Format/Info : Enhanced AC-3 with Joint Object Coding Commercial name : Dolby Digital Plus with Dolby Atmos Codec ID : A_EAC3 Duration : 2 h 0 min Bit rate mode : Constant Bit rate : 768 kb/s Channel(s) : 6 channels Channel layout : L R C LFE Ls Rs Sampling rate : 48.0 kHz Frame rate : 31.250 FPS (1536 SPF) Compression mode : Lossy Stream size : 661 MiB (4%) Title : Original Language : English Service kind : Complete Main Default : No Forced : No Complexity index : 16 Number of dynamic objects : 15 Bed channel count : 1 channel Bed channel configuration : LFE Text #1 ID : 9 Format : UTF-8 Codec ID : S_TEXT/UTF8 Codec ID/Info : UTF-8 Plain Text Duration : 1 h 44 min Bit rate : 5 b/s Frame rate : 0.016 FPS Count of elements : 102 Stream size : 4.59 KiB (0%) Title : Форсированные Language : Russian Default : Yes Forced : No Text #2 ID : 10 Format : UTF-8 Codec ID : S_TEXT/UTF8 Codec ID/Info : UTF-8 Plain Text Duration : 1 h 47 min Bit rate : 88 b/s Frame rate : 0.219 FPS Count of elements : 1409 Stream size : 69.6 KiB (0%) Title : Полные Кинопоиск HD Language : Russian Default : No Forced : No Text #3 ID : 11 Format : UTF-8 Codec ID : S_TEXT/UTF8 Codec ID/Info : UTF-8 Plain Text Duration : 1 h 50 min Bit rate : 107 b/s Frame rate : 0.283 FPS Count of elements : 1871 Stream size : 86.8 KiB (0%) Title : Полные SDH Кинопоиск HD Language : Russian Default : No Forced : No Text #4 ID : 12 Format : UTF-8 Codec ID : S_TEXT/UTF8 Codec ID/Info : UTF-8 Plain Text Duration : 1 h 49 min Bit rate : 86 b/s Frame rate : 0.227 FPS Count of elements : 1493 Stream size : 69.5 KiB (0%) Title : Полные ViruseProject Language : Russian Default : No Forced : No Text #5 ID : 13 Format : UTF-8 Codec ID : S_TEXT/UTF8 Codec ID/Info : UTF-8 Plain Text Duration : 1 h 49 min Bit rate : 10 b/s Frame rate : 0.023 FPS Count of elements : 151 Stream size : 8.38 KiB (0%) Title : Мәжбүрлі субтитрлер Language : Kazakh Default : No Forced : No Text #6 ID : 14 Format : UTF-8 Codec ID : S_TEXT/UTF8 Codec ID/Info : UTF-8 Plain Text Duration : 1 h 49 min Bit rate : 95 b/s Frame rate : 0.228 FPS Count of elements : 1500 Stream size : 76.8 KiB (0%) Title : Толық субтитрлер Language : Kazakh Default : No Forced : No Text #7 ID : 15 Format : UTF-8 Codec ID : S_TEXT/UTF8 Codec ID/Info : UTF-8 Plain Text Duration : 1 h 44 min Bit rate : 3 b/s Frame rate : 0.016 FPS Count of elements : 100 Stream size : 2.91 KiB (0%) Title : Majburiy subtitrlar Language : Uzbek Default : No Forced : No Text #8 ID : 16 Format : UTF-8 Codec ID : S_TEXT/UTF8 Codec ID/Info : UTF-8 Plain Text Duration : 1 h 49 min Bit rate : 60 b/s Frame rate : 0.226 FPS Count of elements : 1488 Stream size : 48.4 KiB (0%) Title : Tam Altyazılar Language : Azerbaijani Default : No Forced : No Text #9 ID : 17 Format : UTF-8 Codec ID : S_TEXT/UTF8 Codec ID/Info : UTF-8 Plain Text Duration : 1 h 40 min Bit rate : 2 b/s Frame rate : 0.012 FPS Count of elements : 70 Stream size : 2.02 KiB (0%) Title : Forced Language : English Default : No Forced : No Text #10 ID : 18 Format : UTF-8 Codec ID : S_TEXT/UTF8 Codec ID/Info : UTF-8 Plain Text Duration : 1 h 47 min Bit rate : 56 b/s Frame rate : 0.216 FPS Count of elements : 1387 Stream size : 44.1 KiB (0%) Title : Full Language : English Default : No Forced : No
[+] Скриншоты

Всего файлов в раздаче: 1 
The.Ministry.of.Ungentlemanly.Warfare.2024.2160p.WEB-DL.SDR.HEVC-Нечипорук.mkv15.32 GB

Похожие раздачи по запросу - Министерство
2024-06-20 magnet Министерство неджентльменских дел / The Ministry of Ungentlemanly Warfare (2024) UHD BDRemux 2160p | 4K | HDR10 | D, P, P2, A 72.43 GB ↑ 0 ↓ 3
2024-06-20 magnet Министерство неджентльменских дел / The Ministry of Ungentlemanly Warfare (2024) BDRip от DoMiNo & селезень | D | Мосфильм-Мастер 1.46 GB ↑ 0 ↓ 6
2024-06-19 magnet Министерство неджентльменских дел / The Ministry of Ungentlemanly Warfare (2024) BDRip от MegaPeer | D 1.46 GB ↑ 0 ↓ 0
2024-06-19 magnet Министерство неджентльменских дел / The Ministry of Ungentlemanly Warfare (2024) BDRip 1080p от MegaPeer | D, P, P2, A 13.48 GB ↑ 0 ↓ 5
2024-06-19 magnet Министерство неджентльменских дел / The Ministry of Ungentlemanly Warfare (2024) BDRip 1080p от селезень | D 10.12 GB ↑ 0 ↓ 4
2024-06-19 magnet Министерство неджентльменских дел / The Ministry of Ungentlemanly Warfare (2024) BDRip 720p от DoMiNo & селезень | D | Мосфильм-Мастер 4.46 GB ↑ 0 ↓ 4
2024-06-19 magnet Министерство неджентльменских дел / The Ministry of Ungentlemanly Warfare (2024) BDRip от MegaPeer | D, P2 2.19 GB ↑ 0 ↓ 2

Кто качает (только для создателя раздачи и модераторов):
ПользовательIP:портОтдалПринялОстатокСидируетТоррент клиентОбновился
1 Аноним 46.175.24.252:51413 183.50 MB 0.00 B 0.00 B да -TR3000- 08:41 2024-06-22

Комментарии


Зарегистрируйтесь чтобы добавить комментарий
Торрент клиент
byTorrent - программа для загрузки торрент-файлов.

Скачать byTorrent.exe (1,5 МБ)

Скачать byTorrent.zip (0,6 МБ)

Поддержи torrent.by
российских рублей
(300 российских рублей это 4$)

Обратная связь rss

End game ©