↑↓torrent.by
Поиск
Логин:  Регистрация
Пароль:

10 жизней / 10 Lives (2024) WEB-DL 1080p от JNS82 | L

download Скачать торрент-файл   magnet Магнитная ссылка Размер: 4.77 GB Раздают: 0 Качают: 28 Добавлен: 2024-05-14 17:00
Пиры будут получены из сети DHT
Последний сидер был замечен вчера в 20:36
10 жизней / 10 Lives Год выпуска: 2024 Выпущено: Великобритания, Канада / The Happy Producers, Quad, GFM Animation, Align Жанр: мультфильм, фэнтези, комедия, семейный Режиссер: Крис Дженкинс / Christopher Jenkins В ролях: Мо Гиллиган, Симон Эшли, Софи Оконедо, Зейн Малик, Дилан Ллевелин, Джереми Свифт, Билл Найи О фильме: Все прекрасно знают, что у котов девять жизней. А еще говорят, что коты ленивые, капризные и довольно агрессивны к окружающим. И все-таки даже самые заносчивые из них просто душки по сравнению с пушистой бестией по имени Беккет. Но его будни скоро изменятся. Притом, целых десять раз! Коту предстоит побывать в шкуре совершенно разных животных, чтобы, наконец, начать ценить свою собственную жизнь. Продолжительность: 01:24:00 Перевод: Любительский (многоголосый, закадровый) | MUZOBOZ Субтитры: Нет. Автор релиза: JNS82. Формат: MKV Качество: WEB-DL 1080p Видео: MPEG-4 AVC, 7739 Кбит/с, (16:9), 1920x1080, 25.000 fps Аудио #1: AC3, 2 ch, 192 Кбит/с | RUS | Аудио #2: E-AC3, 2 ch, 192 Кбит/с | ENG |
[+] MediaInfoОбщее Уникальный идентификатор : 55908518936296472134379966726890811210 (0x2A0F96CDB8F2435851D73DED94236F4A) Полное имя : D:Torrents10.Lives.2024.WEB-DL.1080p_от_JNS82.mkv Формат : Matroska Версия формата : Version 4 Размер файла : 4,77 Гбайт Продолжительность : 1 ч. 24 м. Режим общего битрейта : Переменный Общий поток : 8 128 Кбит/сек Название фильма : 10.Lives.2024.WEB-DL.1080p_от_JNS82 Дата кодирования : UTC 2024-05-14 08:14:00 Программа кодирования : mkvmerge v79.0 ('Funeral Pyres') 64-bit Библиотека кодирования : libebml v1.4.4 + libmatroska v1.7.1 / VideoReDo (Lavf58.29.100) Обложка : Yes Attachments : cover.png Видео Идентификатор : 1 Формат : AVC Формат/Информация : Advanced Video Codec Профиль формата : High@L4.1 Настройки формата : CABAC / 4 Ref Frames Параметр CABAC формата : Да Параметр RefFrames формата : 4 кадра Параметр GOP формата : M=3, N=48 Идентификатор кодека : V_MPEG4/ISO/AVC Продолжительность : 1 ч. 24 м. Вид битрейта : Переменный Битрейт : 7 739 Кбит/сек Максимальный битрейт : 7 830 Кбит/сек Ширина : 1 920 пикселей Высота : 1 080 пикселей Соотношение сторон : 16:9 Режим частоты кадров : Постоянный Частота кадров : 25,000 кадров/сек Стандарт вещания : Component Цветовое пространство : YUV Субдискретизация насыщенности : 4:2:0 Битовая глубина : 8 бит Тип развёртки : Прогрессивная Бит/(Пиксели*Кадры) : 0.149 Размер потока : 4,54 Гбайт (95%) Заголовок : 10 Lives (2024) Язык : English Default : Да Forced : Нет Цветовой диапазон : Limited Основные цвета : BT.709 Характеристики трансфера : BT.709 Коэффициенты матрицы : BT.709 Аудио #1 Идентификатор : 2 Формат : AC-3 Формат/Информация : Audio Coding 3 Коммерческое название : Dolby Digital Идентификатор кодека : A_AC3 Продолжительность : 1 ч. 23 м. Вид битрейта : Постоянный Битрейт : 192 Кбит/сек Каналы : 2 канала Channel layout : L R Частота : 48,0 КГц Частота кадров : 31,250 кадров/сек (1536 SPF) Метод сжатия : С потерями Размер потока : 115 Мбайт (2%) Заголовок : MVO -MUZOBOZ Язык : Russian Service kind : Complete Main Default : Да Forced : Нет Аудио #2 Идентификатор : 3 Формат : E-AC-3 Формат/Информация : Enhanced AC-3 Коммерческое название : Dolby Digital Plus Настройки формата : Dolby Surround Идентификатор кодека : A_EAC3 Продолжительность : 1 ч. 24 м. Вид битрейта : Постоянный Битрейт : 192 Кбит/сек Каналы : 2 канала Channel layout : L R Частота : 48,0 КГц Частота кадров : 31,250 кадров/сек (1536 SPF) Метод сжатия : С потерями Размер потока : 115 Мбайт (2%) Заголовок : Original Язык : English Service kind : Complete Main Default : Нет Forced : Нет Меню 00:00:00.000 : en:Chapter 1

Всего файлов в раздаче: 1 
10.Lives.2024.WEB-DL.1080p_от_JNS82.mkv4.77 GB

Похожие раздачи по запросу - жизней
2024-04-14 magnet 9 жизней / 9 Bullets / Nine Bullets (2022) BDRip 720p от селезень | iTunes 3.47 GB ↑ 0 ↓ 0

Кто качает (только для создателя раздачи и модераторов):
ПользовательIP:портОтдалПринялОстатокСидируетТоррент клиентОбновился
1 Аноним 91.184.184.109:36933 944.00 kB 802.22 MB 4.55 GB нет -qB4390- 08:53 2024-05-19
2 Аноним 198.215.252.109:46791 80.00 kB 1.35 GB 4.56 GB нет -qB4390- 08:43 2024-05-19
3 Аноним 185.217.191.88:32000 2.84 MB 4.87 GB 4.68 GB нет -qB4390- 08:28 2024-05-19
4 Аноним 95.24.163.162:32000 160.00 kB 1.97 GB 4.69 GB нет -qB4390- 08:50 2024-05-19
5 Аноним 172.64.51.176:32000 2.66 MB 3.91 GB 4.69 GB нет -qB4390- 08:51 2024-05-19
6 Аноним 107.189.212.176:33629 6.90 MB 746.65 MB 4.69 GB нет -qB4390- 08:32 2024-05-19
7 Аноним 178.187.119.53:32000 0.00 B 1.40 GB 4.69 GB нет -qB4390- 08:48 2024-05-19
8 Аноним 80.251.225.185:46067 4.12 MB 3.50 GB 4.69 GB нет -qB4390- 08:29 2024-05-19
9 Аноним 49.160.39.193:40841 2.95 MB 3.61 GB 4.69 GB нет -qB4390- 08:34 2024-05-19
10 Аноним 217.46.107.91:45373 1.92 MB 1.77 GB 4.69 GB нет -qB4390- 08:56 2024-05-19
11 Аноним 62.197.253.92:33555 4.64 MB 777.03 MB 4.69 GB нет -qB4390- 08:53 2024-05-19
12 Аноним 122.220.51.94:42375 5.77 MB 3.81 GB 4.69 GB нет -qB4390- 08:23 2024-05-19
13 Аноним 1.149.247.91:32000 272.00 kB 4.75 GB 4.69 GB нет -qB4390- 08:53 2024-05-19
14 Аноним 158.87.129.178:33689 4.14 MB 4.69 GB 4.69 GB нет -qB4390- 08:40 2024-05-19
15 Аноним 139.76.234.178:45625 13.65 MB 3.12 GB 4.69 GB нет -qB4390- 08:49 2024-05-19
16 Аноним 159.224.217.5:32000 0.00 B 334.72 MB 4.69 GB нет -qB4320- 08:50 2024-05-19
17 Аноним 65.181.87.109:35885 2.70 MB 1.96 GB 4.69 GB нет -qB4390- 08:42 2024-05-19
18 Аноним 155.32.202.109:2079 1.30 MB 174.65 MB 4.69 GB нет -qB4390- 08:55 2024-05-19
19 Аноним 88.112.228.5:42075 0.00 B 0.00 B 8589934592.00 GB нет -qB4390- 08:39 2024-05-19
20 Аноним 91.209.49.37:40363 0.00 B 0.00 B 8589934592.00 GB нет -qB4390- 08:50 2024-05-19
21 Аноним 158.137.113.89:39081 0.00 B 0.00 B 8589934592.00 GB нет -qB4390- 08:48 2024-05-19
22 Аноним 111.123.243.188:32000 0.00 B 0.00 B 8589934592.00 GB нет -qB4390- 08:28 2024-05-19
23 Аноним 115.76.45.147:39645 0.00 B 0.00 B 8589934592.00 GB нет -qB4390- 08:39 2024-05-19
24 Аноним 120.77.24.95:33139 0.00 B 0.00 B 8589934592.00 GB нет -qB4390- 08:38 2024-05-19
25 Аноним 58.150.23.31:36075 0.00 B 0.00 B 8589934592.00 GB нет -qB4390- 08:28 2024-05-19
26 Аноним 79.219.200.88:39179 0.00 B 0.00 B 8589934592.00 GB нет -qB4390- 08:34 2024-05-19
27 Аноним 201.128.165.95:39757 0.00 B 0.00 B 8589934592.00 GB нет -qB4390- 08:33 2024-05-19
28 Аноним 95.4.126.109:37037 0.00 B 0.00 B 8589934592.00 GB нет -qB4390- 08:37 2024-05-19

Комментарии


Зарегистрируйтесь чтобы добавить комментарий
Торрент клиент
byTorrent - программа для загрузки торрент-файлов.

Скачать byTorrent.exe (1,5 МБ)

Скачать byTorrent.zip (0,6 МБ)

Поддержи torrent.by
российских рублей
(300 российских рублей это 4$)

Обратная связь rss

End game ©